Скачать через торрент музыку Mojo Blues Band - And The Rockin Boogie Flu - 1988, бесплатно без регистрации torrent

Если у вас наблюдаются проблемы со скриншотами, переходом по ссылками, скачиванием торрентов - проблемы в блокировщике рекламы AdBlock. #хорошегоДня!


Статистика раздачи
Размер:  259 MB   |    Зарегистрирован:  5 лет 8 месяцев   |    .torrent скачан:  27 раз   |   
Раздают:  1  
   
Загрузка...
 
Автор Сообщение

Umakiro

avatar Umakiro


Mojo Blues Band - And The Rockin' Boogie Flu

Жанр: Blues
Год издания диска: 1988
Аудиокодек: APE (*.ape)
Тип рипа: image+.cue
Битрейт аудио: lossless
Продолжительность: 42:01
Источник (релизер): CD
Наличие сканов в содержимом раздачи: да
Треклист:
01. Viola [0:02:52.16]
02. Blue Job (Instrumental) [0:03:43.00]
03. Sea Cruise [0:02:50.66]
04. Feelin' Shakey [0:02:25.00]
05. Drinkin' Wine Spo-Dee-O-Dee [0:02:43.50]
06. Big Ten Inch [0:02:37.33]
07. One For The Road [0:03:40.49]
08. Rockin' Pneumonia And The Boogie Woogie Flu [0:02:37.50]
09. Hot Bricks [0:02:52.82]
10. Gotta Go Home [0:03:22.84]
11. 7th-Floor Boogie [0:03:09.16]
12. Doc's Houseparty [0:03:13.00]
13. Choo Choo Ch'Boogie [0:03:06.17]
14. Oo Ee Baby [0:02:47.66]
 
Exact Audio Copy V0.99 prebeta 4 from 23. January 2008

Отчёт EAC об извлечении, выполненном 27. декабря 2009, 4:27

Mojo Blues Band / And The Rockin' Boogie Flu

Дисковод: PLEXTOR DVDR PX-820A Adapter: 3 ID: 1

Режим чтения : ДостоверностьИспользование точного потока : ДаОтключение кэша аудио : ДаИспользование указателей C2 : Нет

Коррекция смещения при чтении : 48Способность читать области Lead-in и Lead-out : НетЗаполнение пропущенных сэмплов тишиной : ДаУдаление блоков с тишиной в начале и конце : НетПри вычислениях CRC использовались нулевые сэмплы : ДаИнтерфейс : Встроенный Win32-интерфейс для Win NT/2000

Выходной формат : Внутренние WAV-операцииФормат сэмплов : 44.100 Гц; 16 бит; стерео

TOC извлечённого CD

Трек | Старт | Длительность | Начальный сектор | Конечный сектор --------------------------------------------------------------------- 1 | 0:00.00 | 2:52.12 | 0 | 12911 2 | 2:52.12 | 3:43.00 | 12912 | 29636 3 | 6:35.12 | 2:50.50 | 29637 | 42436 4 | 9:25.62 | 2:25.00 | 42437 | 53311 5 | 11:50.62 | 2:43.38 | 53312 | 65574 6 | 14:34.25 | 2:37.25 | 65575 | 77374 7 | 17:11.50 | 3:40.37 | 77375 | 93911 8 | 20:52.12 | 2:37.38 | 93912 | 105724 9 | 23:29.50 | 2:52.62 | 105725 | 118686 10 | 26:22.37 | 3:22.63 | 118687 | 133899 11 | 29:45.25 | 3:09.12 | 133900 | 148086 12 | 32:54.37 | 3:13.00 | 148087 | 162561 13 | 36:07.37 | 3:06.13 | 162562 | 176524 14 | 39:13.50 | 2:47.50 | 176525 | 189099

Характеристики диапазона извлечения и сообщения об ошибках

Выбранный диапазон

Имя файла D:\В ПАМЯТЬ\MOTO BLUES BAND\Mojo Blues Band - And The Rockin' Boogie Flu.wav

Пиковый уровень 100.0 % Качество диапазона 100.0 % CRC копии EB515747 Копирование... OK

Ошибок не произошло

AccurateRip: сводка

Трек 1 нет в базе данныхТрек 2 нет в базе данныхТрек 3 нет в базе данныхТрек 4 нет в базе данныхТрек 5 нет в базе данныхТрек 6 нет в базе данныхТрек 7 нет в базе данныхТрек 8 нет в базе данныхТрек 9 нет в базе данныхТрек 10 нет в базе данныхТрек 11 нет в базе данныхТрек 12 нет в базе данныхТрек 13 нет в базе данныхТрек 14 нет в базе данных

Ни одного трека нет в базе AccurateRip

Конец отчёта


Трекер:  [ 29-Янв-2012 05:19 ]

  

Скачать .torrent

Размер .torrent файла 11 KB


Размер: 259 MB
Хэш (hash) релиза: 827c5047595604a460fe097404c56cfc5c1a9386

Еще никто не оставлял запись к записи скачать торрент Mojo Blues Band - And The Rockin Boogie Flu - 1988, . Будь первым!

!Обратная связь