Скачать через торрент музыку Michael Powers - Prodigal Son - 2006, бесплатно без регистрации torrent

Если у вас наблюдаются проблемы со скриншотами, переходом по ссылками, скачиванием торрентов - проблемы в блокировщике рекламы AdBlock. #хорошегоДня!


Статистика раздачи
Размер:  358 MB   |    Зарегистрирован:  5 лет 8 месяцев   |    .torrent скачан:  39 раз   |   
Раздают:  1  
   
Загрузка...
 
Автор Сообщение

Umakiro

avatar Umakiro


Michael Powers - Prodigal Son

Жанр: Blues
Год издания диска: 2006
Аудиокодек: APE (*.ape)
Тип рипа: image+.cue
Битрейт аудио: lossless
Продолжительность: 47:49
Источник (релизер): БОЛВАНКА
Наличие сканов в содержимом раздачи: да
Треклист:
01. Goin' Down [0:03:45.97]
02. It's A Bloody [0:03:20.52]
03. Prodigal Son [0:04:37.38]
04. White Lightning [0:04:06.01]
05. Wild Side [0:03:59.26]
06. Every Grain Of Sand [0:04:49.64]
07. Lay The Hooch [0:02:41.77]
08. Oh John [0:03:33.93]
09. Signed D.C. [0:04:33.06]
10. Compassion [0:04:36.77]
11. You Got To Go Down [0:04:30.49]
12. Train Kept A Rollin' [0:03:14.24]
 
Exact Audio Copy V0.99 prebeta 4 from 23. January 2008

Отчёт EAC об извлечении, выполненном 23. января 2012, 15:10

Michael Powers / Prodigal Son

Дисковод: Optiarc DVD RW AD-7173A Adapter: 0 ID: 1

Режим чтения : ДостоверностьИспользование точного потока : ДаОтключение кэша аудио : ДаИспользование указателей C2 : Нет

Коррекция смещения при чтении : 48Способность читать области Lead-in и Lead-out : НетЗаполнение пропущенных сэмплов тишиной : ДаУдаление блоков с тишиной в начале и конце : НетПри вычислениях CRC использовались нулевые сэмплы : ДаИнтерфейс : Встроенный Win32-интерфейс для Win NT/2000

Выходной формат : Внутренние WAV-операцииФормат сэмплов : 44.100 Гц; 16 бит; стерео

TOC извлечённого CD

Трек | Старт | Длительность | Начальный сектор | Конечный сектор --------------------------------------------------------------------- 1 | 0:00.00 | 3:45.73 | 0 | 16947 2 | 3:45.73 | 3:20.39 | 16948 | 31986 3 | 7:06.37 | 4:37.29 | 31987 | 52790 4 | 11:43.66 | 4:06.01 | 52791 | 71241 5 | 15:49.67 | 3:59.20 | 71242 | 89186 6 | 19:49.12 | 4:49.48 | 89187 | 110909 7 | 24:38.60 | 2:41.58 | 110910 | 123042 8 | 27:20.43 | 3:33.70 | 123043 | 139087 9 | 30:54.38 | 4:33.05 | 139088 | 159567 10 | 35:27.43 | 4:36.58 | 159568 | 180325 11 | 40:04.26 | 4:30.37 | 180326 | 200612 12 | 44:34.63 | 3:14.18 | 200613 | 215180

Характеристики диапазона извлечения и сообщения об ошибках

Выбранный диапазон

Имя файла E:\РАЗДАЧИ\Michael Powers - Prodigal Son\Michael Powers - Prodigal Son.wav

Пиковый уровень 99.8 % Качество диапазона 100.0 % CRC теста 94B57D87 CRC копии 94B57D87 Копирование... OK

Ошибок не произошло

AccurateRip: сводка

Трек 1 точность не определена (достоверность 6) [39FC3EF2], AccurateRip вернул [4F752C91]Трек 2 точность не определена (достоверность 6) [67356C95], AccurateRip вернул [CB909415]Трек 3 точность не определена (достоверность 6) [2562C19E], AccurateRip вернул [FB3439A4]Трек 4 точность не определена (достоверность 6) [9284BD8C], AccurateRip вернул [4DB9A4EE]Трек 5 точность не определена (достоверность 6) [B17971CE], AccurateRip вернул [D1657038]Трек 6 точность не определена (достоверность 6) [F9797B50], AccurateRip вернул [ABCA83AD]Трек 7 точность не определена (достоверность 6) [CF5EF984], AccurateRip вернул [169D5FEF]Трек 8 точность не определена (достоверность 6) [D784C5CD], AccurateRip вернул [2AB7186C]Трек 9 точность не определена (достоверность 6) [C0E34AC8], AccurateRip вернул [4762DAEB]Трек 10 точность не определена (достоверность 5) [11DB038B], AccurateRip вернул [E4D13502]Трек 11 точность не определена (достоверность 6) [3184B080], AccurateRip вернул [A5EA34A9]Трек 12 точность не определена (достоверность 6) [E9A380BC], AccurateRip вернул [B1768C34]

Ни один трек не прошёл проверки на точностьВ вашей базе может быть иной вариант штамповки диска

Конец отчёта


Трекер:  [ 29-Янв-2012 05:19 ]

  

Скачать .torrent

Размер .torrent файла 15 KB


Размер: 358 MB
Хэш (hash) релиза: d1f5ccaf82181dce7008e22c6878772f92a6cab4

Еще никто не оставлял запись к записи скачать торрент Michael Powers - Prodigal Son - 2006, . Будь первым!

!Обратная связь