Скачать через торрент музыку Fleetwood Mac - Boston Blues - 2000, APE бесплатно без регистрации torrent

Если у вас наблюдаются проблемы со скриншотами, переходом по ссылками, скачиванием торрентов - проблемы в блокировщике рекламы AdBlock. #хорошегоДня!


Статистика раздачи
Размер:  763 MB   |    Зарегистрирован:  5 лет 8 месяцев   |    .torrent скачан:  34 раза   |   
Раздают:  1  
   
Загрузка...
 
Автор Сообщение

Umakiro

avatar Umakiro


Fleetwood Mac / Boston Blues

Жанр: Blues
Страна-производитель диска: EU
Год издания диска: 2000
Издатель (лейбл): Snapper Music
Номер по каталогу: SMDCD274
Страна: England
Аудиокодек: APE (*.ape)
Тип рипа: image+.cue
Битрейт аудио: lossless
Продолжительность: 56:14, 53:07
Источник (релизер): Собственный рип
Наличие сканов в содержимом раздачи: да
Треклист:
01 Black Magic Woman
02 Like It This Way
03 Oh Well
04 Jumping At Shadows
05 Stranger Blues
06 Oh Baby
07 Got To Move
08 Rattlesnake Shake
------------------------------------
01 World In Harmony
02 Sandy Mary
03 Loving Kind
04 Only You
05 Red Hot Mama
06 I Can't Hold Out
07 The Green Manalishi
08 Encore Jam
 
Exact Audio Copy V0.99 prebeta 5 from 4. May 2009

Отчёт EAC об извлечении, выполненном 28. января 2012, 19:27

Fleetwood Mac / Boston Blues [Disc 1]

Дисковод: Optiarc DVD RW AD-7200A Adapter: 1 ID: 0

Режим чтения : ДостоверностьИспользование точного потока : ДаОтключение кэша аудио : ДаИспользование указателей C2 : Нет

Коррекция смещения при чтении : 48Способность читать области Lead-in и Lead-out : НетЗаполнение пропущенных сэмплов тишиной : ДаУдаление блоков с тишиной в начале и конце : НетПри вычислениях CRC использовались нулевые сэмплы : ДаИнтерфейс : Встроенный Win32-интерфейс для Win NT/2000

Выходной формат : Внутренние WAV-операцииФормат сэмплов : 44.100 Гц; 16 бит; стерео

TOC извлечённого CD

Трек | Старт | Длительность | Начальный сектор | Конечный сектор --------------------------------------------------------------------- 1 | 0:00.00 | 6:48.04 | 0 | 30603 2 | 6:48.04 | 4:27.63 | 30604 | 50691 3 | 11:15.67 | 3:14.21 | 50692 | 65262 4 | 14:30.13 | 4:49.38 | 65263 | 86975 5 | 19:19.51 | 3:59.33 | 86976 | 104933 6 | 23:19.09 | 4:27.22 | 104934 | 124980 7 | 27:46.31 | 3:51.73 | 124981 | 142378 8 | 31:38.29 | 24:35.71 | 142379 | 253074

Характеристики диапазона извлечения и сообщения об ошибках

Выбранный диапазон

Имя файла H:\Раздачи\Fleetwood Mac - Boston Blues 2000\Fleetwood Mac - Boston Blues [Disc 1].wav

Пиковый уровень 100.0 % Качество диапазона 100.0 % CRC теста 3A9699BD CRC копии 3A9699BD Копирование... OK

Ошибок не произошло

AccurateRip: сводка

Трек 1 точное извлечение (доверие 7) [F5CAB9E7]Трек 2 точное извлечение (доверие 7) [49EB1325]Трек 3 точное извлечение (доверие 8) [D0449B39]Трек 4 точное извлечение (доверие 8) [771E200D]Трек 5 точное извлечение (доверие 8) [C95A1046]Трек 6 точное извлечение (доверие 8) [DB5CF4B0]Трек 7 точное извлечение (доверие 7) [4823DE56]Трек 8 точное извлечение (доверие 7) [8DB0BB5A]

Все треки извлечены точно

Конец отчёта---------------------------------------------------------------------------------------Exact Audio Copy V0.99 prebeta 5 from 4. May 2009

Отчёт EAC об извлечении, выполненном 28. января 2012, 20:26

Fleetwood Mac / Boston Blues [Disc 2]

Дисковод: Optiarc DVD RW AD-7200A Adapter: 1 ID: 0

Режим чтения : ДостоверностьИспользование точного потока : ДаОтключение кэша аудио : ДаИспользование указателей C2 : Нет

Коррекция смещения при чтении : 48Способность читать области Lead-in и Lead-out : НетЗаполнение пропущенных сэмплов тишиной : ДаУдаление блоков с тишиной в начале и конце : НетПри вычислениях CRC использовались нулевые сэмплы : ДаИнтерфейс : Встроенный Win32-интерфейс для Win NT/2000

Выходной формат : Внутренние WAV-операцииФормат сэмплов : 44.100 Гц; 16 бит; стерео

TOC извлечённого CD

Трек | Старт | Длительность | Начальный сектор | Конечный сектор --------------------------------------------------------------------- 1 | 0:00.00 | 4:11.41 | 0 | 18865 2 | 4:11.41 | 5:22.67 | 18866 | 43082 3 | 9:34.33 | 2:52.15 | 43083 | 55997 4 | 12:26.48 | 4:25.59 | 55998 | 75931 5 | 16:52.32 | 4:12.10 | 75932 | 94841 6 | 21:04.42 | 6:31.57 | 94842 | 124223 7 | 27:36.24 | 12:44.68 | 124224 | 181591 8 | 40:21.17 | 12:45.65 | 181592 | 239031

Характеристики диапазона извлечения и сообщения об ошибках

Выбранный диапазон

Имя файла H:\Раздачи\Fleetwood Mac - Boston Blues 2000\Fleetwood Mac - Boston Blues [Disc 2].wav

Пиковый уровень 99.9 % Качество диапазона 100.0 % CRC теста 70A9FAC3 CRC копии 70A9FAC3 Копирование... OK

Ошибок не произошло

AccurateRip: сводка

Трек 1 точное извлечение (доверие 7) [189512A7]Трек 2 точное извлечение (доверие 7) [3DCC0DE2]Трек 3 точное извлечение (доверие 7) [EE33D9C2]Трек 4 точное извлечение (доверие 7) [A5780AA8]Трек 5 точное извлечение (доверие 7) [CDABD280]Трек 6 точное извлечение (доверие 7) [9CA52D75]Трек 7 точное извлечение (доверие 7) [E904023A]Трек 8 точное извлечение (доверие 7) [81856212]

Все треки извлечены точно

Конец отчёта
 
REM GENRE BluesREM DATE 1967REM DISCID 5A0D2E08REM COMMENT "ExactAudioCopy v0.99pb5"PERFORMER "Fleetwood Mac"TITLE "Boston Blues [Disc 1]"FILE "Fleetwood Mac - Boston Blues [Disc 1].wav" WAVE TRACK 01 AUDIO TITLE "Black Magic Woman" PERFORMER "Fleetwood Mac" INDEX 01 00:00:00 TRACK 02 AUDIO TITLE "Like It This Way" PERFORMER "Fleetwood Mac" INDEX 00 06:46:29 INDEX 01 06:48:04 TRACK 03 AUDIO TITLE "Oh Well" PERFORMER "Fleetwood Mac" INDEX 00 11:14:17 INDEX 01 11:15:67 TRACK 04 AUDIO TITLE "Jumping At Shadows" PERFORMER "Fleetwood Mac" INDEX 00 14:28:38 INDEX 01 14:30:13 TRACK 05 AUDIO TITLE "Stranger Blues" PERFORMER "Fleetwood Mac" INDEX 00 19:18:01 INDEX 01 19:19:51 TRACK 06 AUDIO TITLE "Oh Baby" PERFORMER "Fleetwood Mac" INDEX 00 23:17:34 INDEX 01 23:19:09 TRACK 07 AUDIO TITLE "Got To Move" PERFORMER "Fleetwood Mac" INDEX 00 27:45:31 INDEX 01 27:46:31 TRACK 08 AUDIO TITLE "Rattlesnake Shake" PERFORMER "Fleetwood Mac" INDEX 00 31:36:54 INDEX 01 31:38:29------------------------------------------------------------------------------------REM GENRE BluesREM DATE 1970REM DISCID 650C7308REM COMMENT "ExactAudioCopy v0.99pb5"PERFORMER "Fleetwood Mac"TITLE "Boston Blues [Disc 2]"FILE "Fleetwood Mac - Boston Blues [Disc 2].wav" WAVE TRACK 01 AUDIO TITLE "World In Harmony" PERFORMER "Fleetwood Mac" INDEX 01 00:00:00 TRACK 02 AUDIO TITLE "Sandy Mary" PERFORMER "Fleetwood Mac" INDEX 00 04:09:66 INDEX 01 04:11:41 TRACK 03 AUDIO TITLE "Loving Kind" PERFORMER "Fleetwood Mac" INDEX 00 09:32:58 INDEX 01 09:34:33 TRACK 04 AUDIO TITLE "Only You" PERFORMER "Fleetwood Mac" INDEX 00 12:24:73 INDEX 01 12:26:48 TRACK 05 AUDIO TITLE "Red Hot Mama" PERFORMER "Fleetwood Mac" INDEX 00 16:50:57 INDEX 01 16:52:32 TRACK 06 AUDIO TITLE "I Can't Hold Out" PERFORMER "Fleetwood Mac" INDEX 00 21:02:67 INDEX 01 21:04:42 TRACK 07 AUDIO TITLE "The Green Manalishi" PERFORMER "Fleetwood Mac" INDEX 00 27:34:49 INDEX 01 27:36:24 TRACK 08 AUDIO TITLE "Encore Jam" PERFORMER "Fleetwood Mac" INDEX 00 40:19:42 INDEX 01 40:21:17
 


Трекер:  [ 29-Янв-2012 05:18 ]

  

Скачать .torrent

Размер .torrent файла 16 KB


Размер: 763 MB
Хэш (hash) релиза: 6e24a59c4fe3cd4207db569fff838500dcb9ccb5

Еще никто не оставлял запись к записи скачать торрент Fleetwood Mac - Boston Blues - 2000, APE . Будь первым!

!Обратная связь