Скачать через торрент музыку Ronnie Ross And His Band - Unforgettable Ronnie Ross - 2000, FLAC бесплатно без регистрации torrent

Если у вас наблюдаются проблемы со скриншотами, переходом по ссылками, скачиванием торрентов - проблемы в блокировщике рекламы AdBlock. #хорошегоДня!


Статистика раздачи
Размер:  277 MB   |    Зарегистрирован:  5 лет 8 месяцев   |    .torrent скачан:  27 раз   |   
Раздают:  1  
   
Загрузка...
 
Автор Сообщение

Umakiro

avatar Umakiro


Ronnie Ross And His Band - Unforgettable Ronnie Ross (The Real Acoustic Sound Collection) - 2000

Mюнхенская фирма "Musikverlage Hans Wewerka” предлагает на своем новом джаз лейбле INMUS серию из 12 CD с ранее не издававшимися записями (интер)национальных раритетов немецкого современного джаза. Все компакт-диски лейбла INMUS в настоящее время доступны только в Австрийском Bock's Music Shop!
Ронни Росс был одним из ключевых баритон - саксофонистов Европы в 1960ые годы. Как самые важные влияния Ронни Росс, англичанин, рожденный в Calcutta (Индия) называет Лестера Янга и Джерри Маллигана. 12 треков этого компакт-диска дают возможность убедиться в этом.


Жанр: Swing, Big Band
Страна исполнителя: UK, Germany
Дата записи: July 1965 at Trixi Studios, Munich
Год издания: 2000
Страна - производитель диска: Germany
Издатель (лейбл): INMUS
Номер по каталогу: 20017

Аудио кодек: FLAC (*.flac)
Тип рипа: (tracks + .cue)
Битрейт аудио: lossless
Наличие сканов в содержимом раздачи: full scans, png, 300 dpi
Продолжительность: 50:58
Источник (релизер): коллекция Л Рендера, мой рип

Трэклист:
1. Last Of The Wine (2:55) Ronnie Ross
2. Since Yesterday (4:18) Ronnie Ross
3. Three For The Bar (2:19) Ronnie Ross
4. Let's Call It Quits (2:24) Ronnie Ross
5. Smiling Jack (2:41) Ronnie Ross
6. Subbasement Blues (4:34) Ronnie Ross
7. Any Minute Now (2:50) Ronnie Ross
8. Stevenson's Rocket (4:21) Ronnie Ross
9. Bent The Sailor (6:28) Peter Trunk
10. Little Frown (5.47) Peter Trunk
11. Tranquology (6:29) Peter Trunk
12. For A Change (4:50) Peter Trunk
Produced by Hans Wewer

Состав:
Ronnie Ross & His Band: Ronnie Ross (Bariton Sax), Dick Spencer (Alt Sax), Don Menza (Tenor Sax), Rudi Risavy (Flute), Rick Kiefer (Trumpet), Rudi Fuessers (Trombone), Pepsi Auer, Joe Haider (Piano), Peter Trunk (Bass), Pierre Favre, Cees See (Drums).
Pure genius from British baritone saxophonist Ronnie Ross – quite possibly the greatest album we've ever heard from him, and a darn rare one as well! The set was recorded in a sound library session in the mid 60s in Germany – and features Ross leading a largeish group that includes Don Menza on tenor, Dick Spencer on alto, Peter Trunk on bass, Joe Haider on piano, and Pierre Favre on drums. The tracks have a tight, snapping groove – almost like jazzy soundtrack music, but a bit more open at times – and all the numbers are originals by Ross or Trunk, dancing nicely with a really lively approach! Titles include "Last Of The Wine", "Let's Call It Quits", "Three For The Bar", "Stevenson's Rocket", "Little Frown", "Bent The Sailor", and "For A Change". (Out of print.)
 
REM GENRE JazzREM DATE 2000REM DISCID 9D0BF20CREM COMMENT "ExactAudioCopy v1.0b2"PERFORMER "Ronnie Ross And His Band"TITLE "Unforgettable Ronnie Ross"FILE "01 - Last Of The Wine.wav" WAVE TRACK 01 AUDIO TITLE "Last Of The Wine" PERFORMER "Ronnie Ross And His Band" INDEX 01 00:00:00 TRACK 02 AUDIO TITLE "Since Yesterday" PERFORMER "Ronnie Ross And His Band" INDEX 00 02:56:00FILE "02 - Since Yesterday.wav" WAVE INDEX 01 00:00:00 TRACK 03 AUDIO TITLE "Three For The Bar" PERFORMER "Ronnie Ross And His Band" INDEX 00 04:19:00FILE "03 - Three For The Bar.wav" WAVE INDEX 01 00:00:00 TRACK 04 AUDIO TITLE "Let's Call It Quits" PERFORMER "Ronnie Ross And His Band" INDEX 00 02:22:00FILE "04 - Let's Call It Quits.wav" WAVE INDEX 01 00:00:00 TRACK 05 AUDIO TITLE "Smiling Jack" PERFORMER "Ronnie Ross And His Band" INDEX 00 02:26:00FILE "05 - Smiling Jack.wav" WAVE INDEX 01 00:00:00 TRACK 06 AUDIO TITLE "Subbasement Blues" PERFORMER "Ronnie Ross And His Band" INDEX 00 02:44:00FILE "06 - Subbasement Blues.wav" WAVE INDEX 01 00:00:00 TRACK 07 AUDIO TITLE "Ani Minute Now" PERFORMER "Ronnie Ross And His Band" INDEX 00 04:35:00FILE "07 - Ani Minute Now.wav" WAVE INDEX 01 00:00:00 TRACK 08 AUDIO TITLE "Stevenson's Rocker" PERFORMER "Ronnie Ross And His Band" INDEX 00 02:51:00FILE "08 - Stevenson's Rocker.wav" WAVE INDEX 01 00:00:00 TRACK 09 AUDIO TITLE "Bent The Sailor" PERFORMER "Ronnie Ross And His Band" INDEX 00 04:21:00FILE "09 - Bent The Sailor.wav" WAVE INDEX 01 00:00:00 TRACK 10 AUDIO TITLE "Little Frown" PERFORMER "Ronnie Ross And His Band" INDEX 00 06:30:00FILE "10 - Little Frown.wav" WAVE INDEX 01 00:00:00 TRACK 11 AUDIO TITLE "Tranguology" PERFORMER "Ronnie Ross And His Band" INDEX 00 05:48:00FILE "11 - Tranguology.wav" WAVE INDEX 01 00:00:00 TRACK 12 AUDIO TITLE "For A Change" PERFORMER "Ronnie Ross And His Band" INDEX 00 06:32:00FILE "12 - For A Change.wav" WAVE INDEX 01 00:00:00
 
Exact Audio Copy V1.0 beta 2 from 29. April 2011

EAC extraction logfile from 21. July 2011, 9:08

Ronnie Ross And His Band / Unforgettable Ronnie Ross

Used drive : HL-DT-STDVD-RAM GH22NP20 Adapter: 0 ID: 0

Read mode : SecureUtilize accurate stream : YesDefeat audio cache : YesMake use of C2 pointers : No

Read offset correction : 102Overread into Lead-In and Lead-Out : NoFill up missing offset samples with silence : YesDelete leading and trailing silent blocks : NoNull samples used in CRC calculations : YesUsed interface : Native Win32 interface for Win NT & 2000Gap handling : Appended to previous track

Used output format : User Defined EncoderSelected bitrate : 1024 kBit/sQuality : HighAdd ID3 tag : NoCommand line compressor : C:\Program Files\Exact Audio Copy\Flac\flac.exeAdditional command line options : -8 -V -T "ARTIST=%artist%" -T "TITLE=%title%" -T "ALBUM=%albumtitle%" -T "DATE=%year%" -T "TRACKNUMBER=%tracknr%" -T "GENRE=%genre%" -T "PERFORMER=%albuminterpret%" -T "COMMENT=EAC V1.0 beta 2, Secure Mode, Test & Copy, Acc

TOC of the extracted CD

Track | Start | Length | Start sector | End sector --------------------------------------------------------- 1 | 0:00.00 | 3:00.00 | 0 | 13499 2 | 3:00.00 | 4:23.00 | 13500 | 33224 3 | 7:23.00 | 2:26.00 | 33225 | 44174 4 | 9:49.00 | 2:30.00 | 44175 | 55424 5 | 12:19.00 | 2:48.00 | 55425 | 68024 6 | 15:07.00 | 4:39.00 | 68025 | 88949 7 | 19:46.00 | 2:55.00 | 88950 | 102074 8 | 22:41.00 | 4:25.00 | 102075 | 121949 9 | 27:06.00 | 6:34.00 | 121950 | 151499 10 | 33:40.00 | 5:52.00 | 151500 | 177899 11 | 39:32.00 | 6:36.00 | 177900 | 207599 12 | 46:08.00 | 4:50.00 | 207600 | 229349

Track 1

Filename D:\music\Musicgate's rips\Ronnie Ross And His Band - Unforgettable Ronnie Ross - 2000\01 - Last Of The Wine.wav

Pre-gap length 0:00:02.00

Peak level 97.9 % Extraction speed 1.4 X Track quality 100.0 % Test CRC 46951301 Copy CRC 46951301 Track not present in AccurateRip database Copy OK

Track 2

Filename D:\music\Musicgate's rips\Ronnie Ross And His Band - Unforgettable Ronnie Ross - 2000\02 - Since Yesterday.wav

Pre-gap length 0:00:04.00

Peak level 97.4 % Extraction speed 1.7 X Track quality 100.0 % Test CRC C4CEDA7D Copy CRC C4CEDA7D Track not present in AccurateRip database Copy OK

Track 3

Filename D:\music\Musicgate's rips\Ronnie Ross And His Band - Unforgettable Ronnie Ross - 2000\03 - Three For The Bar.wav

Pre-gap length 0:00:04.00

Peak level 92.6 % Extraction speed 1.7 X Track quality 100.0 % Test CRC A48ADE6D Copy CRC A48ADE6D Track not present in AccurateRip database Copy OK

Track 4

Filename D:\music\Musicgate's rips\Ronnie Ross And His Band - Unforgettable Ronnie Ross - 2000\04 - Let's Call It Quits.wav

Pre-gap length 0:00:04.00

Peak level 90.0 % Extraction speed 1.8 X Track quality 100.0 % Test CRC 6D6DBFF9 Copy CRC 6D6DBFF9 Track not present in AccurateRip database Copy OK

Track 5

Filename D:\music\Musicgate's rips\Ronnie Ross And His Band - Unforgettable Ronnie Ross - 2000\05 - Smiling Jack.wav

Pre-gap length 0:00:04.00

Peak level 98.0 % Extraction speed 1.6 X Track quality 99.9 % Test CRC 7E9326B0 Copy CRC 7E9326B0 Track not present in AccurateRip database Copy OK

Track 6

Filename D:\music\Musicgate's rips\Ronnie Ross And His Band - Unforgettable Ronnie Ross - 2000\06 - Subbasement Blues.wav

Pre-gap length 0:00:04.00

Peak level 96.9 % Extraction speed 2.2 X Track quality 100.0 % Test CRC 103D2CF9 Copy CRC 103D2CF9 Track not present in AccurateRip database Copy OK

Track 7

Filename D:\music\Musicgate's rips\Ronnie Ross And His Band - Unforgettable Ronnie Ross - 2000\07 - Ani Minute Now.wav

Pre-gap length 0:00:04.00

Peak level 94.7 % Extraction speed 2.2 X Track quality 100.0 % Test CRC E68F7F92 Copy CRC E68F7F92 Track not present in AccurateRip database Copy OK

Track 8

Filename D:\music\Musicgate's rips\Ronnie Ross And His Band - Unforgettable Ronnie Ross - 2000\08 - Stevenson's Rocker.wav

Pre-gap length 0:00:04.00

Peak level 97.9 % Extraction speed 2.4 X Track quality 100.0 % Test CRC 6F681207 Copy CRC 6F681207 Track not present in AccurateRip database Copy OK

Track 9

Filename D:\music\Musicgate's rips\Ronnie Ross And His Band - Unforgettable Ronnie Ross - 2000\09 - Bent The Sailor.wav

Pre-gap length 0:00:04.00

Peak level 97.8 % Extraction speed 2.7 X Track quality 100.0 % Test CRC 92679BB9 Copy CRC 92679BB9 Track not present in AccurateRip database Copy OK

Track 10

Filename D:\music\Musicgate's rips\Ronnie Ross And His Band - Unforgettable Ronnie Ross - 2000\10 - Little Frown.wav

Pre-gap length 0:00:04.00

Peak level 95.7 % Extraction speed 2.8 X Track quality 100.0 % Test CRC 090AFD50 Copy CRC 090AFD50 Track not present in AccurateRip database Copy OK

Track 11

Filename D:\music\Musicgate's rips\Ronnie Ross And His Band - Unforgettable Ronnie Ross - 2000\11 - Tranguology.wav

Pre-gap length 0:00:04.00

Peak level 98.2 % Extraction speed 3.0 X Track quality 100.0 % Test CRC 71415CAF Copy CRC 71415CAF Track not present in AccurateRip database Copy OK

Track 12

Filename D:\music\Musicgate's rips\Ronnie Ross And His Band - Unforgettable Ronnie Ross - 2000\12 - For A Change.wav

Pre-gap length 0:00:04.00

Peak level 97.4 % Extraction speed 3.0 X Track quality 100.0 % Test CRC 1505762D Copy CRC 1505762D Track not present in AccurateRip database Copy OK

None of the tracks are present in the AccurateRip database

No errors occurred

End of status report

==== Log checksum 024891531BFB5A8188410A6DE030D47742E174546F4B198A7B67D91599FD3607 ====


Трекер:  [ 29-Янв-2012 05:16 ]

  

Скачать .torrent

Размер .torrent файла 12 KB


Размер: 277 MB
Хэш (hash) релиза: a60c6d262992e2417113caaff22963301d0e767f

Еще никто не оставлял запись к записи скачать торрент Ronnie Ross And His Band - Unforgettable Ronnie Ross - 2000, FLAC . Будь первым!

!Обратная связь