Скачать через торрент музыку Ilan Salem & Kenny Werner - Twists & Turns - 2006, FLAC бесплатно без регистрации torrent

Если у вас наблюдаются проблемы со скриншотами, переходом по ссылками, скачиванием торрентов - проблемы в блокировщике рекламы AdBlock. #хорошегоДня!


Статистика раздачи
Размер:  440 MB   |    Зарегистрирован:  5 лет 8 месяцев   |    .torrent скачан:  33 раза   |   
Раздают:  1  
   
Загрузка...
 
Автор Сообщение

Umakiro

avatar Umakiro


Ilan Salem & Kenny Werner - Twists & Turns

Жанр: Contemporary, post bop
Дата записи: at NYC, feb. 24-25, 2005
Дата выпуска: 2006
Производитель диска, страна: Amana, Israel
Страна исполнителя: Israel / USA

Аудио кодек: FLAC
Тип рипа: (image + .cue)
Битрейт аудио: lossless
Включает: Full artwork, png
Продолжительность: 59:51
Источник: Моя коллекция
Риппер: Мой рип

Трэклист:
1. Floating
2. Naivete
3. Hurly-burly
4. Sway
5. Twists & Turns
6. Song For Anna
7. Heart and Soul
8. longing
9. Bliss
all compositions written by Ilan Salem

Об исполнителе:

Израильский флейтист, композитор, преподаватель, участник записей Авишая КОэна, записал свой сольный альбом в Нью Йорке, в сотрудничестве с пианистом Кенни Вернером, кроме них - постоянный ударник Салема и контрабасист из трио Вернера

Состав:
Ilan Salem - Flute & Alto Flute
Kenny Werner - piano
Johannes Weidenmueller - bass
Eitan Itzkovich - drums
Exact Audio Copy V0.99 prebeta 4 from 23. January 2008

EAC extraction logfile from 5. January 2009, 18:45

Ilan Salem & Kenny Werner / Twists & Turns

Used drive : PIONEER DVD-RW DVR-112D Adapter: 0 ID: 0

Read mode : Secure
Utilize accurate stream : Yes
Defeat audio cache : Yes
Make use of C2 pointers : No

Read offset correction : 48
Overread into Lead-In and Lead-Out : No
Fill up missing offset samples with silence : Yes
Delete leading and trailing silent blocks : No
Null samples used in CRC calculations : Yes
Used interface : Installed external ASPI interface

Used output format : User Defined Encoder
Selected bitrate : 320 kBit/s
Quality : High
Add ID3 tag : Yes
Command line compressor : C:\Program Files\Exact Audio Copy\Flac\flac.exe
Additional command line options : -V -8 -T "artist=%a" -T "title=%t" -T "album=%g" -T "date=%y" -T "tracknumber=%n" -T "genre=%m" %s

TOC of the extracted CD

Track | Start | Length | Start sector | End sector
---------------------------------------------------------
1 | 0:00.00 | 7:10.56 | 0 | 32305
2 | 7:10.56 | 6:02.66 | 32306 | 59521
3 | 13:13.47 | 4:29.45 | 59522 | 79741
4 | 17:43.17 | 7:16.55 | 79742 | 112496
5 | 24:59.72 | 8:53.28 | 112497 | 152499
6 | 33:53.25 | 5:23.41 | 152500 | 176765
7 | 39:16.66 | 7:18.17 | 176766 | 209632
8 | 46:35.08 | 7:14.53 | 209633 | 242235
9 | 53:49.61 | 6:01.37 | 242236 | 269347

Range status and errors

Selected range

Filename D:\music\rip\ - () {,}\Ilan Salem & Kenny Werner - Twists & Turns.wav

Peak level 99.9 %
Range quality 100.0 %
Test CRC 81156E72
Copy CRC 81156E72
Copy OK

No errors occurred

AccurateRip summary

Track 1 not present in database
Track 2 not present in database
Track 3 not present in database
Track 4 not present in database
Track 5 not present in database
Track 6 not present in database
Track 7 not present in database
Track 8 not present in database
Track 9 not present in database

None of the tracks are present in the AccurateRip database

End of status report


Трекер:  [ 29-Янв-2012 05:14 ]

  

Скачать .torrent

Размер .torrent файла 18 KB


Размер: 440 MB
Хэш (hash) релиза: 34ea99fb8247ccd9407b894997a0cfbfccfee611

Еще никто не оставлял запись к записи скачать торрент Ilan Salem & Kenny Werner - Twists & Turns - 2006, FLAC . Будь первым!

!Обратная связь