Скачать через торрент музыку Weather Report - Sweetnighter бесплатно без регистрации torrent

Если у вас наблюдаются проблемы со скриншотами, переходом по ссылками, скачиванием торрентов - проблемы в блокировщике рекламы AdBlock. #хорошегоДня!


Статистика раздачи
Размер:  316 MB   |    Зарегистрирован:  5 лет 8 месяцев   |    .torrent скачан:  47 раз   |   
Раздают:  1  
   
Загрузка...
 
Автор Сообщение

Umakiro

avatar Umakiro


Weather Report / Sweetnighter (Japan remasters)

Жанр: Fusion
Страна-производитель диска: Japan
Год издания диска: 1973
Издатель (лейбл): Sony Music
Аудио кодек: FLAC (*.flac)
Тип рипа: image+.cue
Битрейт аудио: lossless
Продолжительность: 44:40
Источник (релизер): собственный рип
Наличие сканов в содержимом раздачи: да
Треклист:
1. Boogie Woogie Waltz
2. Manolete
3. Adios
4. 125th Street Congress
5. Will
6. Non-Stop Home
 
Exact Audio Copy V0.99 prebeta 5 from 4. May 2009

Отчёт EAC об извлечении, выполненном 29. ноября 2010, 14:46

Weather Report / Sweetnighter

Дисковод: TSSTcorpCDDVDW SH-S223B Adapter: 2 ID: 3

Режим чтения : ДостоверностьИспользование точного потока : ДаОтключение кэша аудио : ДаИспользование указателей C2 : Нет

Коррекция смещения при чтении : 6Способность читать области Lead-in и Lead-out : НетЗаполнение пропущенных сэмплов тишиной : ДаУдаление блоков с тишиной в начале и конце : НетПри вычислениях CRC использовались нулевые сэмплы : ДаИнтерфейс : Встроенный Win32-интерфейс для Win NT/2000

Выходной формат : Пользовательский кодировщикВыбранный битрейт : 768 kBit/sКачество : ВысокийДобавление ID3-тэга : НетУтилита сжатия : C:\Program Files (x86)\Exact Audio Copy\FLAC\FLAC.EXEДополнительные параметры : -8 -V -T "ARTIST=%a" -T "TITLE=%t" -T "ALBUM=%g" -T "DATE=%y" -T "TRACKNUMBER=%n" -T "GENRE=%m" -T "COMMENT=%e" %s -o %d

TOC извлечённого CD

Трек | Старт | Длительность | Начальный сектор | Конечный сектор --------------------------------------------------------------------- 1 | 0:00.00 | 13:07.22 | 0 | 59046 2 | 13:07.22 | 5:57.61 | 59047 | 85882 3 | 19:05.08 | 3:01.48 | 85883 | 99505 4 | 22:06.56 | 12:16.70 | 99506 | 154775 5 | 34:23.51 | 6:23.49 | 154776 | 183549 6 | 40:47.25 | 3:53.25 | 183550 | 201049

Характеристики диапазона извлечения и сообщения об ошибках

Выбранный диапазон

Имя файла E:\Аудио\0001_Project\Weather Report - Sweetnighter.wav

Пиковый уровень 98.9 % Качество диапазона 100.0 % CRC теста 4B3F3164 CRC копии 4B3F3164 Копирование... OK

Ошибок не произошло

AccurateRip: сводка

Трек 1 точное извлечение (доверие 2) [2063095A]Трек 2 точное извлечение (доверие 2) [B79B9D7A]Трек 3 точное извлечение (доверие 2) [D2895A31]Трек 4 точное извлечение (доверие 2) [11C2CA05]Трек 5 точное извлечение (доверие 2) [5C436DE2]Трек 6 точное извлечение (доверие 2) [A6A1D279]

Все треки извлечены точно

Конец отчёта


Трекер:  [ 29-Янв-2012 05:12 ]

  

Скачать .torrent

Размер .torrent файла 13 KB


Размер: 316 MB
Хэш (hash) релиза: 2f8bf666c74048a4d8be92abb609233a22cfe757

Еще никто не оставлял запись к записи скачать торрент Weather Report - Sweetnighter . Будь первым!

!Обратная связь