Скачать через торрент музыку Weather Report "Tale Spinnin"1975 - 2002, FLAC бесплатно без регистрации torrent

Если у вас наблюдаются проблемы со скриншотами, переходом по ссылками, скачиванием торрентов - проблемы в блокировщике рекламы AdBlock. #хорошегоДня!


Статистика раздачи
Размер:  282 MB   |    Зарегистрирован:  5 лет 8 месяцев   |    .torrent скачан:  37 раз   |   
Раздают:  1  
   
Загрузка...
 
Автор Сообщение

Umakiro

avatar Umakiro


Weather Report "Tale Spinnin'"1975

Жанр: Jazz-Fusion
Год выпуска диска: 2002
Страна: USA
Аудио кодек: FLAC
Тип рипа: image+.cue
Битрейт аудио: lossless
Трэклист:
1. Man in the Green Shirt (6:28)
2. Lusitanos (7:24)
3. Between the Thighs (9:33)
4. Badia (5:20)
5. Freezing Fire (7:29)
6. Five Short Stories (6:56)
Доп. информация: Musicians
- Leon Ndugu Chancler / drums, tympani, marching cymbals
- Alyrio Lima / percussion
- Alphonso Johnson / bass
- Wayne Shorter / soprano & tenor saxophones
- Joe Zawinul / acoustic & electric pianos, melodica, Tonto synthesizer system, ARP 2600, organ, steel drum, oud, mzuthra, vocals, West Afrik, xylophone, cymbals
Exact Audio Copy V0.99 prebeta 4 from 23. January 2008

Отчёт EAC об извлечении, выполненном 1. ноября 2008, 20:53

Weather Report / Tale Spinnin'

Дисковод: Optiarc DVD RW AD-7200S Adapter: 4 ID: 0

Режим чтения : Достоверность
Использование точного потока : Да
Отключение кэша аудио : Да
Использование указателей C2 : Нет

Комбинированное смещение чтения/записи : 48
Способность читать области Lead-in и Lead-out : Нет
Заполнение пропущенных сэмплов тишиной : Да
Удаление блоков с тишиной в начале и конце : Нет
При вычислениях CRC использовались нулевые сэмплы : Да
Интерфейс : Установленный внешний ASPI-интерфейс

Выходной формат : Пользовательский кодировщик
Выбранный битрейт : 768 kBit/s
Качество : Высокий
Добавление ID3-тэга : Нет
Утилита сжатия : C:\Program Files\Exact Audio Copy\FLAC\FLAC.EXE
Дополнительные параметры : -6 -V -T "ARTIST=%a" -T "TITLE=%t" -T "ALBUM=%g" -T "DATE=%y" -T "TRACKNUMBER=%n" -T "GENRE=%m" -T "COMMENT=%e" %s -o %d

TOC извлечённого CD

Трек | Старт | Длительность | Начальный сектор | Конечный сектор
---------------------------------------------------------------------
1 | 0:00.00 | 6:28.70 | 0 | 29169
2 | 6:28.70 | 7:24.72 | 29170 | 62541
3 | 13:53.67 | 9:33.38 | 62542 | 105554
4 | 23:27.30 | 5:20.65 | 105555 | 129619
5 | 28:48.20 | 7:29.32 | 129620 | 163326
6 | 36:17.52 | 6:56.40 | 163327 | 194566

Характеристики диапазона извлечения и сообщения об ошибках

Выбранный диапазон

Имя файла E:\avm\Upload\Weather Report-Tale Spinnin'\Weather Report - Tale Spinnin'.wav

Пиковый уровень 99.9 %
Качество диапазона 100.0 %
CRC копии B91E71E7
Копирование... OK

Ошибок не произошло

Конец отчёта
Рип мой,источник-моя коллекция CD

Трекер:  [ 29-Янв-2012 05:10 ]

  

Скачать .torrent

Размер .torrent файла 12 KB


Размер: 282 MB
Хэш (hash) релиза: 63988eacb566d9e6f61d37484366e3cd79b645de

Еще никто не оставлял запись к записи скачать торрент Weather Report "Tale Spinnin"1975 - 2002, FLAC . Будь первым!

!Обратная связь