Скачать через торрент музыку Weather Report - Heavy Weather бесплатно без регистрации torrent

Если у вас наблюдаются проблемы со скриншотами, переходом по ссылками, скачиванием торрентов - проблемы в блокировщике рекламы AdBlock. #хорошегоДня!


Статистика раздачи
Размер:  269 MB   |    Зарегистрирован:  5 лет 8 месяцев   |    .torrent скачан:  34 раза   |   
Раздают:  1  
   
Загрузка...
 
Автор Сообщение

Umakiro

avatar Umakiro


Weather Report / Heavy Weather (Japan remasters - 2000)

Жанр: Fusion
Страна-производитель диска: Japan
Год издания диска: 1977
Издатель (лейбл): Sony Music
Аудио кодек: FLAC (*.flac)
Тип рипа: image+.cue
Битрейт аудио: lossless
Продолжительность: 37:51
Источник (релизер): собственный рип
Наличие сканов в содержимом раздачи: да
Треклист:
1. Birdland
2. A Remark You Made
3. Teen Town
4. Harlequin
5. Rumba Mama
6. Palladium
7. The Juggler
8. Havona
 
Exact Audio Copy V0.99 prebeta 5 from 4. May 2009

Отчёт EAC об извлечении, выполненном 29. ноября 2010, 13:14

WEATHER REPORT / Heavy Weather

Дисковод: TSSTcorpCDDVDW SH-S223B Adapter: 2 ID: 3

Режим чтения : ДостоверностьИспользование точного потока : ДаОтключение кэша аудио : ДаИспользование указателей C2 : Нет

Коррекция смещения при чтении : 6Способность читать области Lead-in и Lead-out : НетЗаполнение пропущенных сэмплов тишиной : ДаУдаление блоков с тишиной в начале и конце : НетПри вычислениях CRC использовались нулевые сэмплы : ДаИнтерфейс : Встроенный Win32-интерфейс для Win NT/2000

Выходной формат : Пользовательский кодировщикВыбранный битрейт : 768 kBit/sКачество : ВысокийДобавление ID3-тэга : НетУтилита сжатия : C:\Program Files (x86)\Exact Audio Copy\FLAC\FLAC.EXEДополнительные параметры : -8 -V -T "ARTIST=%a" -T "TITLE=%t" -T "ALBUM=%g" -T "DATE=%y" -T "TRACKNUMBER=%n" -T "GENRE=%m" -T "COMMENT=%e" %s -o %d

TOC извлечённого CD

Трек | Старт | Длительность | Начальный сектор | Конечный сектор --------------------------------------------------------------------- 1 | 0:00.00 | 5:58.55 | 0 | 26904 2 | 5:58.55 | 6:51.35 | 26905 | 57764 3 | 12:50.15 | 2:51.45 | 57765 | 70634 4 | 15:41.60 | 4:01.07 | 70635 | 88716 5 | 19:42.67 | 2:11.45 | 88717 | 98586 6 | 21:54.37 | 4:48.65 | 98587 | 120251 7 | 26:43.27 | 5:05.70 | 120252 | 143196 8 | 31:49.22 | 6:02.00 | 143197 | 170346

Характеристики диапазона извлечения и сообщения об ошибках

Выбранный диапазон

Имя файла E:\Аудио\0001_Project\WEATHER REPORT - Heavy Weather.wav

Пиковый уровень 100.0 % Качество диапазона 100.0 % CRC теста 586CB81B CRC копии 586CB81B Копирование... OK

Ошибок не произошло

AccurateRip: сводка

Трек 1 точность не определена (достоверность 3) [20B510CB], AccurateRip вернул [50067BD4]Трек 2 точность не определена (достоверность 3) [627A7DE8], AccurateRip вернул [931DB68F]Трек 3 точность не определена (достоверность 3) [23628837], AccurateRip вернул [E8FC8A65]Трек 4 точность не определена (достоверность 3) [B8E4EF8C], AccurateRip вернул [359CB61C]Трек 5 точность не определена (достоверность 3) [CBB19AAC], AccurateRip вернул [B3D5709A]Трек 6 точность не определена (достоверность 3) [C12C2ECA], AccurateRip вернул [25F4D2DD]Трек 7 точность не определена (достоверность 3) [FCB8D90E], AccurateRip вернул [56FBFD30]Трек 8 точность не определена (достоверность 3) [0D009346], AccurateRip вернул [DD9D31DD]

Ни один трек не прошёл проверки на точностьВ вашей базе может быть иной вариант штамповки диска

Конец отчёта


Трекер:  [ 29-Янв-2012 05:09 ]

  

Скачать .torrent

Размер .torrent файла 11 KB


Размер: 269 MB
Хэш (hash) релиза: 4f559424f12835f37554f45281931f0fc25ac878

Еще никто не оставлял запись к записи скачать торрент Weather Report - Heavy Weather . Будь первым!

!Обратная связь