Скачать через торрент музыку Weather Report - Black Market бесплатно без регистрации torrent

Если у вас наблюдаются проблемы со скриншотами, переходом по ссылками, скачиванием торрентов - проблемы в блокировщике рекламы AdBlock. #хорошегоДня!


Статистика раздачи
Размер:  243 MB   |    Зарегистрирован:  5 лет 8 месяцев   |    .torrent скачан:  30 раз   |   
Раздают:  1  
   
Загрузка...
 
Автор Сообщение

Umakiro

avatar Umakiro


Weather Report / Black Market (Japan remasters)

Жанр: Fusion
Страна-производитель диска: Japan
Год издания диска: 1976
Издатель (лейбл): Sony Music
Аудио кодек: FLAC (*.flac)
Тип рипа: image+.cue
Битрейт аудио: lossless
Продолжительность: 37:21
Источник (релизер): собственный рип
Наличие сканов в содержимом раздачи: да
Треклист:
1. Black Market
2. Cannon Ball
3. Gibraltar
4. Elegant People
5. Three Clowns
6. Barbary Coast
7. Herandnu
 
Exact Audio Copy V0.99 prebeta 5 from 4. May 2009

Отчёт EAC об извлечении, выполненном 29. ноября 2010, 14:20

Weather Report / Black Market

Дисковод: TSSTcorpCDDVDW SH-S223B Adapter: 2 ID: 3

Режим чтения : ДостоверностьИспользование точного потока : ДаОтключение кэша аудио : ДаИспользование указателей C2 : Нет

Коррекция смещения при чтении : 6Способность читать области Lead-in и Lead-out : НетЗаполнение пропущенных сэмплов тишиной : ДаУдаление блоков с тишиной в начале и конце : НетПри вычислениях CRC использовались нулевые сэмплы : ДаИнтерфейс : Встроенный Win32-интерфейс для Win NT/2000

Выходной формат : Пользовательский кодировщикВыбранный битрейт : 768 kBit/sКачество : ВысокийДобавление ID3-тэга : НетУтилита сжатия : C:\Program Files (x86)\Exact Audio Copy\FLAC\FLAC.EXEДополнительные параметры : -8 -V -T "ARTIST=%a" -T "TITLE=%t" -T "ALBUM=%g" -T "DATE=%y" -T "TRACKNUMBER=%n" -T "GENRE=%m" -T "COMMENT=%e" %s -o %d

TOC извлечённого CD

Трек | Старт | Длительность | Начальный сектор | Конечный сектор --------------------------------------------------------------------- 1 | 0:00.00 | 6:29.52 | 0 | 29226 2 | 6:29.52 | 4:39.48 | 29227 | 50199 3 | 11:09.25 | 7:48.22 | 50200 | 85321 4 | 18:57.47 | 5:05.55 | 85322 | 108251 5 | 24:03.27 | 3:25.38 | 108252 | 123664 6 | 27:28.65 | 3:15.27 | 123665 | 138316 7 | 30:44.17 | 6:36.60 | 138317 | 168076

Характеристики диапазона извлечения и сообщения об ошибках

Выбранный диапазон

Имя файла E:\Аудио\0001_Project\Weather Report - Black Market.wav

Пиковый уровень 99.5 % Качество диапазона 100.0 % CRC теста C8EA01B5 CRC копии C8EA01B5 Копирование... OK

Ошибок не произошло

AccurateRip: сводка

Трек 1 нет в базе данныхТрек 2 нет в базе данныхТрек 3 нет в базе данныхТрек 4 нет в базе данныхТрек 5 нет в базе данныхТрек 6 нет в базе данныхТрек 7 нет в базе данных

Ни одного трека нет в базе AccurateRip

Конец отчёта


Трекер:  [ 29-Янв-2012 05:09 ]

  

Скачать .torrent

Размер .torrent файла 19 KB


Размер: 243 MB
Хэш (hash) релиза: bd7d09942e43e4c78191341c6a44e09ea1038e1b

Еще никто не оставлял запись к записи скачать торрент Weather Report - Black Market . Будь первым!

!Обратная связь