Скачать через торрент музыку Justo Almario & Abraham Laboriel - Justo Almario & Abraham Laboriel - 1995, FLAC бесплатно без регистрации torrent

Если у вас наблюдаются проблемы со скриншотами, переходом по ссылками, скачиванием торрентов - проблемы в блокировщике рекламы AdBlock. #хорошегоДня!


Статистика раздачи
Размер:  333 MB   |    Зарегистрирован:  5 лет 8 месяцев   |    .torrent скачан:  30 раз   |   
Раздают:  1  
   
Загрузка...
 
Автор Сообщение

Umakiro

avatar Umakiro


Justo Almario & Abraham Laboriel - Justo Almario & Abraham Laboriel

Жанр: Fusion
Год выпуска диска: 1995
Производитель диска: Integrity Music Inc. / 101 South Records / ammc international, Germany
Аудио кодек: FLAC
Тип рипа: image+.cue
Битрейт аудио: lossless
Продолжительность: 56:49
Трэклист:
01. To Him Who Sits On The Throne
02. God Is Able
03. Medley: More Love To Thee / Jesus Loves Me, This I Know / We Worship You
04. He Is Exalted
05. I Will Bless The Lord
06. Yahweh
07. Medley: Give Thanks / Grateful Heart
08. Amor, Alegria, Paz (Love, Joy, Peace)
09. Righteousness, Peace And Joy
10. Times Of Refreshing
11. Celebrate Jesus
12. Imago Dei (The Image Of God)

Доп. информация:
Musicians:
Justo Almario - saxes, flute, clarinet
Abraham Laboriel - basses, acoustic guitar
Greg Mathieson - acoustic piano, keyboards, B-3 organ
Abe Laboriel, Jr. - drums
Michael Thompson - guitars
Harland Rogers - keyboards, acoustic piano
Luis Conte - percussion
Atle Bakken - additional keyboards & programming
Bill Maxwell - drums
Paul Jackson, Jr. - guitar
Sid Page - concert master & violin (12)
Susan Katayama - cello (12)
Robert Becker - viola (12)
Charles Everett - violin (12)
background vocals and handclaps (6): Barbara Almario, Jazmin Almario, Naima Almario, Justo Almario, Valerie De La Torre, Celeste Maxwell Fehlberg, Abraham Laboriel, Lyn Laboriel, Aaron Maxwell, Sherie Padelford, Pauline Wilson, Frank Zottoli

Сканы обложек присутствуют.
Exact Audio Copy V0.99 prebeta 5 from 4. May 2009

EAC extraction logfile from 7. December 2009, 1:24

Justo Almario & Abraham Laboriel / Justo Almario & Abraham Laboriel

Used drive : HL-DT-STDVD-RAM GH22NS30 Adapter: 3 ID: 0

Read mode : Secure
Utilize accurate stream : Yes
Defeat audio cache : Yes
Make use of C2 pointers : No

Read offset correction : 102
Overread into Lead-In and Lead-Out : No
Fill up missing offset samples with silence : Yes
Delete leading and trailing silent blocks : No
Null samples used in CRC calculations : Yes
Used interface : Native Win32 interface for Win NT & 2000

Used output format : User Defined Encoder
Selected bitrate : 128 kBit/s
Quality : High
Add ID3 tag : No
Command line compressor : C:\Program Files\Exact Audio Copy\Flac\flac.exe
Additional command line options : -8 -V %s

TOC of the extracted CD

Track | Start | Length | Start sector | End sector
---------------------------------------------------------
1 | 0:00.00 | 4:16.55 | 0 | 19254
2 | 4:16.55 | 5:12.22 | 19255 | 42676
3 | 9:29.02 | 6:58.23 | 42677 | 74049
4 | 16:27.25 | 4:18.15 | 74050 | 93414
5 | 20:45.40 | 5:11.07 | 93415 | 116746
6 | 25:56.47 | 4:58.23 | 116747 | 139119
7 | 30:54.70 | 6:09.37 | 139120 | 166831
8 | 37:04.32 | 4:08.30 | 166832 | 185461
9 | 41:12.62 | 3:53.63 | 185462 | 202999
10 | 45:06.50 | 3:45.57 | 203000 | 219931
11 | 48:52.32 | 5:06.03 | 219932 | 242884
12 | 53:58.35 | 2:50.40 | 242885 | 255674

Range status and errors

Selected range

Filename I:\Images\Justo Almario & Abraham Laboriel\Justo Almario & Abraham Laboriel - Justo Almario & Abraham Laboriel.wav

Peak level 100.0 %
Range quality 99.9 %
Copy CRC A1D29AE8
Copy OK

No errors occurred

AccurateRip summary

Track 1 not present in database
Track 2 not present in database
Track 3 not present in database
Track 4 not present in database
Track 5 not present in database
Track 6 not present in database
Track 7 not present in database
Track 8 not present in database
Track 9 not present in database
Track 10 not present in database
Track 11 not present in database
Track 12 not present in database

None of the tracks are present in the AccurateRip database

End of status report


Трекер:  [ 29-Янв-2012 05:08 ]

  

Скачать .torrent

Размер .torrent файла 14 KB


Размер: 333 MB
Хэш (hash) релиза: b2b7d39f5c0755c465a2bda2a335a71f1d9dc38b

Еще никто не оставлял запись к записи скачать торрент Justo Almario & Abraham Laboriel - Justo Almario & Abraham Laboriel - 1995, FLAC . Будь первым!

!Обратная связь