Скачать через торрент музыку Casiopea - Inspire - 2002, FLAC бесплатно без регистрации torrent

Если у вас наблюдаются проблемы со скриншотами, переходом по ссылками, скачиванием торрентов - проблемы в блокировщике рекламы AdBlock. #хорошегоДня!


Статистика раздачи
Размер:  375 MB   |    Зарегистрирован:  5 лет 8 месяцев   |    .torrent скачан:  30 раз   |   
Раздают:  1  
   
Загрузка...
 
Автор Сообщение

Umakiro

avatar Umakiro


Casiopea
Inspire

Жанр: Fusion
Страна-производитель диска: Japan
Год издания диска: 2002
Издатель (лейбл): Geneon
Номер по каталогу: GNCL-1083
Страна: Japan
Аудиокодек: FLAC (*.flac)
Тип рипа: tracks+.cue
Битрейт аудио: lossless
Продолжительность: 52:17
Источник (релизер): what.cd
Наличие сканов в содержимом раздачи: да
01 Windy Sunshine (6:00)
02 Glowing (4:16)
03 Avalon (4:18)
04 Line & Color (3:39)
05 Rose (5:34)
06 Horizonte (3:42)
07 Smiles (5:37)
08 Time with Space (4:27)
09 Wa·su·re·mo·no (4:25)
10 Suggestive One (5:16)
11 Cry with Terra (5:14)
12 In the Memory (4:12)

 
Exact Audio Copy V0.99 prebeta 5 from 4. May 2009

EAC extraction logfile from 13. September 2009, 4:02

Casiopea / Inspire

Used drive : HL-DT-STDVDRAM GSA-4163B Adapter: 1 ID: 1

Read mode : SecureUtilize accurate stream : YesDefeat audio cache : YesMake use of C2 pointers : No

Read offset correction : 667Overread into Lead-In and Lead-Out : NoFill up missing offset samples with silence : YesDelete leading and trailing silent blocks : NoNull samples used in CRC calculations : YesUsed interface : Native Win32 interface for Win NT & 2000Gap handling : Appended to previous track

Used output format : User Defined EncoderSelected bitrate : 1024 kBit/sQuality : HighAdd ID3 tag : NoCommand line compressor : C:\Program Files\Exact Audio Copy\_Flac.exe\flac_1.2.1.exeAdditional command line options : -8 -V -T "artist=%a" -T "title=%t" -T "album=%g" -T "date=%y" -T "tracknumber=%n" -T "genre=%m" %s

TOC of the extracted CD

Track | Start | Length | Start sector | End sector --------------------------------------------------------- 1 | 0:00.00 | 5:59.40 | 0 | 26964 2 | 5:59.40 | 4:16.20 | 26965 | 46184 3 | 10:15.60 | 4:18.10 | 46185 | 65544 4 | 14:33.70 | 3:39.30 | 65545 | 81999 5 | 18:13.25 | 5:34.32 | 82000 | 107081 6 | 23:47.57 | 3:42.35 | 107082 | 123766 7 | 27:30.17 | 5:37.30 | 123767 | 149071 8 | 33:07.47 | 4:27.20 | 149072 | 169116 9 | 37:34.67 | 4:25.33 | 169117 | 189024 10 | 42:00.25 | 5:15.55 | 189025 | 212704 11 | 47:16.05 | 5:13.55 | 212705 | 236234 12 | 52:29.60 | 4:12.33 | 236235 | 255167

Track 1

Filename L:\41_Music_Converter\03_GoldWave_Working\Casiopea - 2002-Inspire - 01 Windy Sunshine.wav

Pre-gap length 0:00:02.00

Peak level 97.9 % Track quality 100.0 % Test CRC 180B2084 Copy CRC 180B2084 Accurately ripped (confidence 2) [14B4A4A7] Copy OK

Track 2

Filename L:\41_Music_Converter\03_GoldWave_Working\Casiopea - 2002-Inspire - 02 Glowing.wav

Pre-gap length 0:00:01.48

Peak level 97.9 % Track quality 100.0 % Test CRC BD39A77E Copy CRC BD39A77E Accurately ripped (confidence 2) [444C40F3] Copy OK

Track 3

Filename L:\41_Music_Converter\03_GoldWave_Working\Casiopea - 2002-Inspire - 03 Avalon.wav

Pre-gap length 0:00:01.08

Peak level 97.9 % Track quality 100.0 % Test CRC E812E83F Copy CRC E812E83F Accurately ripped (confidence 2) [7E9CF07E] Copy OK

Track 4

Filename L:\41_Music_Converter\03_GoldWave_Working\Casiopea - 2002-Inspire - 04 Line & Color.wav

Pre-gap length 0:00:01.58

Peak level 97.9 % Track quality 100.0 % Test CRC F3EA4625 Copy CRC F3EA4625 Accurately ripped (confidence 2) [DE3B7770] Copy OK

Track 5

Filename L:\41_Music_Converter\03_GoldWave_Working\Casiopea - 2002-Inspire - 05 Rose.wav

Pre-gap length 0:00:02.70

Peak level 97.9 % Track quality 100.0 % Test CRC 95D20EBB Copy CRC 95D20EBB Accurately ripped (confidence 2) [1DE036DC] Copy OK

Track 6

Filename L:\41_Music_Converter\03_GoldWave_Working\Casiopea - 2002-Inspire - 06 Horizonte.wav

Peak level 97.9 % Track quality 99.9 % Test CRC 4B3B6557 Copy CRC 4B3B6557 Accurately ripped (confidence 2) [EE58ABF9] Copy OK

Track 7

Filename L:\41_Music_Converter\03_GoldWave_Working\Casiopea - 2002-Inspire - 07 Smiles.wav

Pre-gap length 0:00:02.72

Peak level 97.9 % Track quality 100.0 % Test CRC 411D8A5C Copy CRC 411D8A5C Accurately ripped (confidence 2) [66685CAB] Copy OK

Track 8

Filename L:\41_Music_Converter\03_GoldWave_Working\Casiopea - 2002-Inspire - 08 Time with Space.wav

Pre-gap length 0:00:01.45

Peak level 97.9 % Track quality 100.0 % Test CRC D963166D Copy CRC D963166D Accurately ripped (confidence 2) [21F74968] Copy OK

Track 9

Filename L:\41_Music_Converter\03_GoldWave_Working\Casiopea - 2002-Inspire - 09 WaЎ¤suЎ¤reЎ¤moЎ¤no.wav

Peak level 97.9 % Track quality 100.0 % Test CRC C47484C7 Copy CRC C47484C7 Accurately ripped (confidence 2) [CF60E2CD] Copy OK

Track 10

Filename L:\41_Music_Converter\03_GoldWave_Working\Casiopea - 2002-Inspire - 10 Suggestive One.wav

Pre-gap length 0:00:02.30

Peak level 97.9 % Track quality 100.0 % Test CRC ED5EAA00 Copy CRC ED5EAA00 Accurately ripped (confidence 2) [1A40F76C] Copy OK

Track 11

Filename L:\41_Music_Converter\03_GoldWave_Working\Casiopea - 2002-Inspire - 11 Cry with Terra.wav

Pre-gap length 0:00:01.28

Peak level 97.9 % Track quality 100.0 % Test CRC 034D0048 Copy CRC 034D0048 Accurately ripped (confidence 2) [1F0EA083] Copy OK

Track 12

Filename L:\41_Music_Converter\03_GoldWave_Working\Casiopea - 2002-Inspire - 12 In the Memory.wav

Pre-gap length 0:00:01.45

Peak level 97.9 % Track quality 100.0 % Test CRC 4A9365CF Copy CRC 4A9365CF Accurately ripped (confidence 2) [42920804] Copy OK

All tracks accurately ripped

No errors occurred

End of status report
 
REM GENRE J-FusionREM DATE 2002REM DISCID AF0D4A0CREM COMMENT "ExactAudioCopy v0.99pb5"PERFORMER "Casiopea"TITLE "Inspire"FILE "Casiopea - 2002-Inspire - 01 Windy Sunshine.wav" WAVE TRACK 01 AUDIO TITLE "Windy Sunshine" PERFORMER "Casiopea" FLAGS DCP INDEX 01 00:00:00 TRACK 02 AUDIO TITLE "Glowing" PERFORMER "Casiopea" FLAGS DCP INDEX 00 05:57:67FILE "Casiopea - 2002-Inspire - 02 Glowing.wav" WAVE INDEX 01 00:00:00 TRACK 03 AUDIO TITLE "Avalon" PERFORMER "Casiopea" FLAGS DCP INDEX 00 04:15:12FILE "Casiopea - 2002-Inspire - 03 Avalon.wav" WAVE INDEX 01 00:00:00 TRACK 04 AUDIO TITLE "Line & Color" PERFORMER "Casiopea" FLAGS DCP INDEX 00 04:16:27FILE "Casiopea - 2002-Inspire - 04 Line & Color.wav" WAVE INDEX 01 00:00:00 TRACK 05 AUDIO TITLE "Rose" PERFORMER "Casiopea" FLAGS DCP INDEX 00 03:36:35FILE "Casiopea - 2002-Inspire - 05 Rose.wav" WAVE INDEX 01 00:00:00FILE "Casiopea - 2002-Inspire - 06 Horizonte.wav" WAVE TRACK 06 AUDIO TITLE "Horizonte" PERFORMER "Casiopea" FLAGS DCP INDEX 01 00:00:00 TRACK 07 AUDIO TITLE "Smiles" PERFORMER "Casiopea" FLAGS DCP INDEX 00 03:39:38FILE "Casiopea - 2002-Inspire - 07 Smiles.wav" WAVE INDEX 01 00:00:00 TRACK 08 AUDIO TITLE "Time with Space" PERFORMER "Casiopea" FLAGS DCP INDEX 00 05:35:60FILE "Casiopea - 2002-Inspire - 08 Time with Space.wav" WAVE INDEX 01 00:00:00FILE "Casiopea - 2002-Inspire - 09 WaЎ¤suЎ¤reЎ¤moЎ¤no.wav" WAVE TRACK 09 AUDIO TITLE "WaЎ¤suЎ¤reЎ¤moЎ¤no" PERFORMER "Casiopea" FLAGS DCP INDEX 01 00:00:00 TRACK 10 AUDIO TITLE "Suggestive One" PERFORMER "Casiopea" FLAGS DCP INDEX 00 04:23:03FILE "Casiopea - 2002-Inspire - 10 Suggestive One.wav" WAVE INDEX 01 00:00:00 TRACK 11 AUDIO TITLE "Cry with Terra" PERFORMER "Casiopea" FLAGS DCP INDEX 00 05:14:27FILE "Casiopea - 2002-Inspire - 11 Cry with Terra.wav" WAVE INDEX 01 00:00:00 TRACK 12 AUDIO TITLE "In the Memory" PERFORMER "Casiopea" FLAGS DCP INDEX 00 05:12:10FILE "Casiopea - 2002-Inspire - 12 In the Memory.wav" WAVE INDEX 01 00:00:00
 
AUDIOCHECKER v2.0 beta (build 457) - by Dester - opdester@freemail.hu~~~~~~~~~~~~~~~~~~~~~~~~~~~~~~~~~~-=== DO NOT EDIT THIS FILE! ===-

Path: ...\Casiopea - Inspire (2002)

01 -=- Casiopea - 2002-Inspire - 01 Windy Sunshine.flac -=- CDDA (99%)02 -=- Casiopea - 2002-Inspire - 02 Glowing.flac -=- CDDA (99%)03 -=- Casiopea - 2002-Inspire - 03 Avalon.flac -=- CDDA (99%)04 -=- Casiopea - 2002-Inspire - 04 Line & Color.flac -=- CDDA (100%)05 -=- Casiopea - 2002-Inspire - 05 Rose.flac -=- CDDA (100%)06 -=- Casiopea - 2002-Inspire - 06 Horizonte.flac -=- CDDA (100%)07 -=- Casiopea - 2002-Inspire - 07 Smiles.flac -=- CDDA (100%)08 -=- Casiopea - 2002-Inspire - 08 Time with Space.flac -=- CDDA (100%)09 -=- Casiopea - 2002-Inspire - 09 Wa·su·re·mo·no.flac -=- CDDA (99%)10 -=- Casiopea - 2002-Inspire - 10 Suggestive One.flac -=- CDDA (100%)11 -=- Casiopea - 2002-Inspire - 11 Cry with Terra.flac -=- CDDA (100%)12 -=- Casiopea - 2002-Inspire - 12 In the Memory.flac -=- CDDA (100%)

Summary 99,67% CDDA

41158340


Трекер:  [ 29-Янв-2012 05:07 ]

  

Скачать .torrent

Размер .torrent файла 16 KB


Размер: 375 MB
Хэш (hash) релиза: 9bb4832a78df826750a646b3d80aa04d4e5354b1

Еще никто не оставлял запись к записи скачать торрент Casiopea - Inspire - 2002, FLAC . Будь первым!

!Обратная связь