Скачать через торрент музыку Ricky Peterson - Smile Blue - 1991, FLAC бесплатно без регистрации torrent

Если у вас наблюдаются проблемы со скриншотами, переходом по ссылками, скачиванием торрентов - проблемы в блокировщике рекламы AdBlock. #хорошегоДня!


Статистика раздачи
Размер:  338 MB   |    Зарегистрирован:  5 лет 8 месяцев   |    .torrent скачан:  23 раза   |   
Раздают:  1  
   
Загрузка...
 
Автор Сообщение

Umakiro

avatar Umakiro


Ricky Peterson / Smile Blue

Жанр: Fusion/Crossover
Страна-производитель диска: USA
Год издания диска: 1991
Издатель (лейбл): Blue Moon
Номер по каталогу: R2 79353
Страна: USA
Аудиокодек: FLAC (*.flac)
Тип рипа: tracks+.cue
Битрейт аудио: lossless
Продолжительность: 51:55
Источник (релизер): funky_cat
Наличие сканов в содержимом раздачи: нет
Треклист:
1 Goodbye 05:04
2 Mitch 04:27
3 What You Won't Do For Love 05:17
4 Half Life 06:03
5 Lost In The Stars 07:01
6 Out Of This World 06:14
7 I Need Your Love 05:10
8 I Can't Think 04:23
9 King Of The World (Part.1) 04:15
10 King Of The World (Part.2) 03:57
 
X Lossless Decoder version 20110821 (136.1)

XLD extraction logfile from 2011-09-12 23:43:23 +0400

Ricky Peterson / Smile Blue

Used drive : HL-DT-ST DVDRW GS23N (revision SB00)

Ripper mode : CDParanoia III 10.2Disable audio cache : OK for the drive with a cache less than 2750KiBMake use of C2 pointers : NORead offset correction : 667Max retry count : 10Gap status : Analyzed, Appended

TOC of the extracted CD Track | Start | Length | Start sector | End sector --------------------------------------------------------- 1 | 00:00:00 | 05:04:50 | 0 | 22849 2 | 05:04:50 | 04:27:43 | 22850 | 42917 3 | 09:32:18 | 05:17:60 | 42918 | 66752 4 | 14:50:03 | 06:03:22 | 66753 | 93999 5 | 20:53:25 | 07:01:00 | 94000 | 125574 6 | 27:54:25 | 06:14:03 | 125575 | 153627 7 | 34:08:28 | 05:10:40 | 153628 | 176917 8 | 39:18:68 | 04:23:35 | 176918 | 196677 9 | 43:42:28 | 04:15:57 | 196678 | 215859 10 | 47:58:10 | 03:57:08 | 215860 | 233642

AccurateRip Summary Disc not found in AccurateRip DB.

All Tracks Album gain : -4.45 dB Peak : 0.999969 Statistics Read error : 0 Skipped (treated as error) : 0 Edge jitter error (maybe fixed) : 0 Atom jitter error (maybe fixed) : 0 Drift error (maybe fixed) : 0 Dropped bytes error (maybe fixed) : 0 Duplicated bytes error (maybe fixed) : 0

Track 01 Filename : /Users/olegbelov/Downloads/Ricky Peterson - Smile Blue (1991)/01 - Goodbye.flac Pre-gap length : 00:02:00

Track gain : -5.01 dB Peak : 0.999969 CRC32 hash (test run) : 8A2908A6 CRC32 hash : 8A2908A6 CRC32 hash (skip zero) : FF842DDC AccurateRip signature : 8FB01433 ->Track not present in AccurateRip database. Statistics Read error : 0 Skipped (treated as error) : 0 Edge jitter error (maybe fixed) : 0 Atom jitter error (maybe fixed) : 0 Drift error (maybe fixed) : 0 Dropped bytes error (maybe fixed) : 0 Duplicated bytes error (maybe fixed) : 0 Inconsistency in error sectors : 0

Track 02 Filename : /Users/olegbelov/Downloads/Ricky Peterson - Smile Blue (1991)/02 - Mitch.flac Pre-gap length : 00:02:03

Track gain : -4.00 dB Peak : 0.999969 CRC32 hash (test run) : AD4D1D81 CRC32 hash : AD4D1D81 CRC32 hash (skip zero) : 148F6878 AccurateRip signature : 374273BD ->Track not present in AccurateRip database. Statistics Read error : 0 Skipped (treated as error) : 0 Edge jitter error (maybe fixed) : 0 Atom jitter error (maybe fixed) : 0 Drift error (maybe fixed) : 0 Dropped bytes error (maybe fixed) : 0 Duplicated bytes error (maybe fixed) : 0 Inconsistency in error sectors : 0

Track 03 Filename : /Users/olegbelov/Downloads/Ricky Peterson - Smile Blue (1991)/03 - What You Won't Do For Love.flac Pre-gap length : 00:03:04

Track gain : -4.66 dB Peak : 0.999969 CRC32 hash (test run) : E96F35DE CRC32 hash : E96F35DE CRC32 hash (skip zero) : D63F632C AccurateRip signature : E98AA5AF ->Track not present in AccurateRip database. Statistics Read error : 0 Skipped (treated as error) : 0 Edge jitter error (maybe fixed) : 0 Atom jitter error (maybe fixed) : 0 Drift error (maybe fixed) : 0 Dropped bytes error (maybe fixed) : 0 Duplicated bytes error (maybe fixed) : 0 Inconsistency in error sectors : 0

Track 04 Filename : /Users/olegbelov/Downloads/Ricky Peterson - Smile Blue (1991)/04 - Half Life.flac Pre-gap length : 00:03:04

Track gain : -1.95 dB Peak : 0.999969 CRC32 hash (test run) : B6D90947 CRC32 hash : B6D90947 CRC32 hash (skip zero) : 9E470AFC AccurateRip signature : A45C28A0 ->Track not present in AccurateRip database. Statistics Read error : 0 Skipped (treated as error) : 0 Edge jitter error (maybe fixed) : 0 Atom jitter error (maybe fixed) : 0 Drift error (maybe fixed) : 0 Dropped bytes error (maybe fixed) : 0 Duplicated bytes error (maybe fixed) : 0 Inconsistency in error sectors : 0

Track 05 Filename : /Users/olegbelov/Downloads/Ricky Peterson - Smile Blue (1991)/05 - Lost In The Stars.flac Pre-gap length : 00:02:03

Track gain : -3.66 dB Peak : 0.999969 CRC32 hash (test run) : DB02E704 CRC32 hash : DB02E704 CRC32 hash (skip zero) : E1A0E940 AccurateRip signature : 55B3BF18 ->Track not present in AccurateRip database. Statistics Read error : 0 Skipped (treated as error) : 0 Edge jitter error (maybe fixed) : 0 Atom jitter error (maybe fixed) : 0 Drift error (maybe fixed) : 0 Dropped bytes error (maybe fixed) : 0 Duplicated bytes error (maybe fixed) : 0 Inconsistency in error sectors : 0

Track 06 Filename : /Users/olegbelov/Downloads/Ricky Peterson - Smile Blue (1991)/06 - Out Of This World.flac Pre-gap length : 00:04:05

Track gain : -3.42 dB Peak : 0.999969 CRC32 hash (test run) : 3797CF6E CRC32 hash : 3797CF6E CRC32 hash (skip zero) : 2274D6E4 AccurateRip signature : 894EA866 ->Track not present in AccurateRip database. Statistics Read error : 0 Skipped (treated as error) : 0 Edge jitter error (maybe fixed) : 0 Atom jitter error (maybe fixed) : 0 Drift error (maybe fixed) : 0 Dropped bytes error (maybe fixed) : 0 Duplicated bytes error (maybe fixed) : 0 Inconsistency in error sectors : 0

Track 07 Filename : /Users/olegbelov/Downloads/Ricky Peterson - Smile Blue (1991)/07 - I Need Your Love.flac Pre-gap length : 00:04:05

Track gain : -3.80 dB Peak : 0.999969 CRC32 hash (test run) : ABB6724A CRC32 hash : ABB6724A CRC32 hash (skip zero) : 97D8D79E AccurateRip signature : 084259C3 ->Track not present in AccurateRip database. Statistics Read error : 0 Skipped (treated as error) : 0 Edge jitter error (maybe fixed) : 0 Atom jitter error (maybe fixed) : 0 Drift error (maybe fixed) : 0 Dropped bytes error (maybe fixed) : 0 Duplicated bytes error (maybe fixed) : 0 Inconsistency in error sectors : 0

Track 08 Filename : /Users/olegbelov/Downloads/Ricky Peterson - Smile Blue (1991)/08 - I Can't Think.flac Pre-gap length : 00:03:04

Track gain : -5.03 dB Peak : 0.999969 CRC32 hash (test run) : 4D547BD2 CRC32 hash : 4D547BD2 CRC32 hash (skip zero) : C2C1A628 AccurateRip signature : 7A7A6ECF ->Track not present in AccurateRip database. Statistics Read error : 0 Skipped (treated as error) : 0 Edge jitter error (maybe fixed) : 0 Atom jitter error (maybe fixed) : 0 Drift error (maybe fixed) : 0 Dropped bytes error (maybe fixed) : 0 Duplicated bytes error (maybe fixed) : 0 Inconsistency in error sectors : 0

Track 09 Filename : /Users/olegbelov/Downloads/Ricky Peterson - Smile Blue (1991)/09 - King Of The World (Part.1).flac Pre-gap length : 00:03:04

Track gain : -6.13 dB Peak : 0.999969 CRC32 hash (test run) : 349A3CCC CRC32 hash : 349A3CCC CRC32 hash (skip zero) : A60D21C5 AccurateRip signature : AEF1B192 ->Track not present in AccurateRip database. Statistics Read error : 0 Skipped (treated as error) : 0 Edge jitter error (maybe fixed) : 0 Atom jitter error (maybe fixed) : 0 Drift error (maybe fixed) : 0 Dropped bytes error (maybe fixed) : 0 Duplicated bytes error (maybe fixed) : 0 Inconsistency in error sectors : 0

Track 10 Filename : /Users/olegbelov/Downloads/Ricky Peterson - Smile Blue (1991)/10 - King Of The World (Part.2).flac Pre-gap length : 00:01:02

Track gain : -4.97 dB Peak : 0.999969 CRC32 hash (test run) : 7F626850 CRC32 hash : 7F626850 CRC32 hash (skip zero) : BCC8C2AC AccurateRip signature : EC9B221B ->Track not present in AccurateRip database. Statistics Read error : 0 Skipped (treated as error) : 0 Edge jitter error (maybe fixed) : 0 Atom jitter error (maybe fixed) : 0 Drift error (maybe fixed) : 0 Dropped bytes error (maybe fixed) : 0 Duplicated bytes error (maybe fixed) : 0 Inconsistency in error sectors : 0

No errors occurred

End of status report
 
TITLE "Smile Blue"PERFORMER "Ricky Peterson"REM GENRE "Jazz"REM DATE "1991"REM DISCID 810C2B0AREM REPLAYGAIN_ALBUM_GAIN -4.45 dBREM REPLAYGAIN_ALBUM_PEAK 0.999969FILE "01 - Goodbye.flac" WAVE TRACK 01 AUDIO TITLE "Goodbye" REM REPLAYGAIN_TRACK_GAIN -5.01 dB REM REPLAYGAIN_TRACK_PEAK 0.999969 INDEX 01 00:00:00 TRACK 02 AUDIO TITLE "Mitch" REM REPLAYGAIN_TRACK_GAIN -4.00 dB REM REPLAYGAIN_TRACK_PEAK 0.999969 INDEX 00 05:02:47FILE "02 - Mitch.flac" WAVE INDEX 01 00:00:00 TRACK 03 AUDIO TITLE "What You Won't Do For Love" REM REPLAYGAIN_TRACK_GAIN -4.66 dB REM REPLAYGAIN_TRACK_PEAK 0.999969 INDEX 00 04:24:39FILE "03 - What You Won't Do For Love.flac" WAVE INDEX 01 00:00:00 TRACK 04 AUDIO TITLE "Half Life" REM REPLAYGAIN_TRACK_GAIN -1.95 dB REM REPLAYGAIN_TRACK_PEAK 0.999969 INDEX 00 05:14:56FILE "04 - Half Life.flac" WAVE INDEX 01 00:00:00 TRACK 05 AUDIO TITLE "Lost In The Stars" REM REPLAYGAIN_TRACK_GAIN -3.66 dB REM REPLAYGAIN_TRACK_PEAK 0.999969 INDEX 00 06:01:19FILE "05 - Lost In The Stars.flac" WAVE INDEX 01 00:00:00 TRACK 06 AUDIO TITLE "Out Of This World" REM REPLAYGAIN_TRACK_GAIN -3.42 dB REM REPLAYGAIN_TRACK_PEAK 0.999969 INDEX 00 06:56:70FILE "06 - Out Of This World.flac" WAVE INDEX 01 00:00:00 TRACK 07 AUDIO TITLE "I Need Your Love" REM REPLAYGAIN_TRACK_GAIN -3.80 dB REM REPLAYGAIN_TRACK_PEAK 0.999969 INDEX 00 06:09:73FILE "07 - I Need Your Love.flac" WAVE INDEX 01 00:00:00 TRACK 08 AUDIO TITLE "I Can't Think" REM REPLAYGAIN_TRACK_GAIN -5.03 dB REM REPLAYGAIN_TRACK_PEAK 0.999969 INDEX 00 05:07:36FILE "08 - I Can't Think.flac" WAVE INDEX 01 00:00:00 TRACK 09 AUDIO TITLE "King Of The World (Part.1)" REM REPLAYGAIN_TRACK_GAIN -6.13 dB REM REPLAYGAIN_TRACK_PEAK 0.999969 INDEX 00 04:20:31FILE "09 - King Of The World (Part.1).flac" WAVE INDEX 01 00:00:00 TRACK 10 AUDIO TITLE "King Of The World (Part.2)" REM REPLAYGAIN_TRACK_GAIN -4.97 dB REM REPLAYGAIN_TRACK_PEAK 0.999969 INDEX 00 04:14:55FILE "10 - King Of The World (Part.2).flac" WAVE INDEX 01 00:00:00
Ricky Peterson (Keyboards, Lead Vocals)
Hiram Bullock, Jim Berringer, Billy Franze, Paul Peterson, Levi Seacer (Guitars)
Billy Peterson, Paul Peterson (Bass)
Vinnie Colaiuta, Michael Bland (Drums)
Don Alias, Gordy Knudtson (Percussion)
Bob Malach, Eric Leeds, Dick Oatts (Saxophones)
Tom Barnard (Vocals 9 & 10)
Billy Peterson, Patty Peterson, Paul Peterson, Ricky Peterson, Ben Sidran & Leo Sidran (Background vocals)


Трекер:  [ 29-Янв-2012 05:04 ]

  

Скачать .torrent

Размер .torrent файла 28 KB


Размер: 338 MB
Хэш (hash) релиза: eee23bece0e6cfd14010c0cc69061baf6feb6b96

Еще никто не оставлял запись к записи скачать торрент Ricky Peterson - Smile Blue - 1991, FLAC . Будь первым!

!Обратная связь