Скачать через торрент музыку Klaus Doldingers Passport - To Morocco бесплатно без регистрации torrent

Если у вас наблюдаются проблемы со скриншотами, переходом по ссылками, скачиванием торрентов - проблемы в блокировщике рекламы AdBlock. #хорошегоДня!


Статистика раздачи
Размер:  395 MB   |    Зарегистрирован:  5 лет 8 месяцев   |    .torrent скачан:  43 раза   |   
Раздают:  1  
   
Загрузка...
 
Автор Сообщение

Umakiro

avatar Umakiro


Klaus Doldinger's Passport - To Morocco (2006)

Жанр: kraut jazz-rock
Год выпуска диска: 2006
Производитель диска: EU
Аудио кодек: FLAC
Тип рипа: tracks+.cue
Продолжительность: 59:43
Трэклист:
1. Medina
2. Merhba
3. Riyad El Cadi
4. Zidane
5. Djemaa El-Fna
6. Lied an den Morgen
7. Pas de Quoi
8. Maalech
9. Barma Soussandi
10. Sahara Sketches
Exact Audio Copy V0.99 prebeta 4 from 23. January 2008

EAC extraction logfile from 3. March 2009, 21:55

Klaus Doldingers Passport / To Morocco

Used drive : TSSTcorpCD/DVDW TS-L532U Adapter: 0 ID: 1

Read mode : Secure
Utilize accurate stream : Yes
Defeat audio cache : Yes
Make use of C2 pointers : No

Read offset correction : 704
Overread into Lead-In and Lead-Out : No
Fill up missing offset samples with silence : Yes
Delete leading and trailing silent blocks : No
Null samples used in CRC calculations : Yes
Used interface : Installed external ASPI interface
Gap handling : Not detected, thus appended to previous track

Used output format : User Defined Encoder
Selected bitrate : 320 kBit/s
Quality : High
Add ID3 tag : No
Command line compressor : C:\Program Files\Exact Audio Copy\FLAC\FLAC.EXE
Additional command line options : -6 -V -T "ARTIST=%a" -T "TITLE=%t" -T "ALBUM=%g" -T "DATE=%y" -T "TRACKNUMBER=%n" -T "GENRE=%m" -T "COMMENT=%e" %s -o %d

TOC of the extracted CD

Track | Start | Length | Start sector | End sector
---------------------------------------------------------
1 | 0:00.00 | 6:48.45 | 0 | 30644
2 | 6:48.45 | 4:22.52 | 30645 | 50346
3 | 11:11.22 | 6:29.43 | 50347 | 79564
4 | 17:40.65 | 3:58.57 | 79565 | 97471
5 | 21:39.47 | 4:59.34 | 97472 | 119930
6 | 26:39.06 | 6:07.66 | 119931 | 147521
7 | 32:46.72 | 4:52.32 | 147522 | 169453
8 | 37:39.29 | 5:09.25 | 169454 | 192653
9 | 42:48.54 | 6:12.57 | 192654 | 220610
10 | 49:01.36 | 10:40.38 | 220611 | 268648

Track 1

Filename D:\uploads\01 - Medina.wav

Peak level 98.1 %
Track quality 100.0 %
Copy CRC 45CFED76
Copy OK

Track 2

Filename D:\uploads\02 - Merhba.wav

Peak level 98.0 %
Track quality 100.0 %
Copy CRC 6E4168E8
Copy OK

Track 3

Filename D:\uploads\03 - Riyad El Cadi.wav

Peak level 98.0 %
Track quality 100.0 %
Copy CRC 3D8CDBD0
Copy OK

Track 4

Filename D:\uploads\04 - Zidane.wav

Peak level 98.2 %
Track quality 99.9 %
Copy CRC 4F37F990
Copy OK

Track 5

Filename D:\uploads\05 - Djemaa El-Fna.wav

Peak level 98.8 %
Track quality 100.0 %
Copy CRC 1CB5E19B
Copy OK

Track 6

Filename D:\uploads\06 - Lied an den Morgen.wav

Peak level 98.0 %
Track quality 100.0 %
Copy CRC 6FCF60E7
Copy OK

Track 7

Filename D:\uploads\07 - Pas de Quoi.wav

Peak level 98.0 %
Track quality 99.9 %
Copy CRC 6CC30ED2
Copy OK

Track 8

Filename D:\uploads\08 - Maalech.wav

Peak level 98.0 %
Track quality 100.0 %
Copy CRC 74746A41
Copy OK

Track 9

Filename D:\uploads\09 - Barma Soussandi.wav

Peak level 98.8 %
Track quality 100.0 %
Copy CRC CA4DA372
Copy OK

Track 10

Filename D:\uploads\10 - Sahara Sketches.wav

Peak level 98.2 %
Track quality 100.0 %
Copy CRC 338DEE43
Copy OK

No errors occurred

End of status report
Доп. информация: cd-rip plus covers

Трекер:  [ 29-Янв-2012 05:04 ]

  

Скачать .torrent

Размер .torrent файла 16 KB


Размер: 395 MB
Хэш (hash) релиза: 75fae0eb98cb81192c57e85601b05e9f0c66c916

Еще никто не оставлял запись к записи скачать торрент Klaus Doldingers Passport - To Morocco . Будь первым!

!Обратная связь