Скачать через торрент музыку Herbie Mann — Super Mann бесплатно без регистрации torrent

Если у вас наблюдаются проблемы со скриншотами, переходом по ссылками, скачиванием торрентов - проблемы в блокировщике рекламы AdBlock. #хорошегоДня!


Статистика раздачи
Размер:  526 MB   |    Зарегистрирован:  5 лет 8 месяцев   |    .torrent скачан:  38 раз   |   
Раздают:  1  
   
Загрузка...
 
Автор Сообщение

Umakiro

avatar Umakiro


Herbie Mann – Super Mann (1978) + Yellow Fever (1972) (2 CD)



Жанр: Crossover Jazz
Год издания диска: 2001
Издатель (лейбл): Collectables
Номер по каталогу: COL-CD-6885
Аудиокодек: FLAC (*.flac)
Тип рипа: tracks+.cue
Битрейт аудио: lossless
Продолжительность: 37:45 / 45:55
Источник: вата
Наличие сканов в содержимом раздачи: да 
 
 
Треклист:
01. Superman (5:35)
02. Etagui (5:16)
03. Jisco Dazz (5:01)
04. Rock Freak (6:08)
05. Stomp Your Feet (4:28)
06. Body Oil (5:34)
07. Django (5:42)

Personnel:
Herbie Mann - fl
John Cooksey, Leroy Burgess, Nat Adderley, Jr., Patrick Adams, Thom Bridwell - key
Clarence Burke, Ken Mazur, Stan Lucas - g
Norbert Sloley - el-b
Richard Taninbaum - d
Eddie Colon, John Cooksey, Michael Lewis - perc
Bruni Pagan, Christine Wiltshire, Jocelyn Shaw, Krystal Davis, Merle Medvene, Pete Warner, Sheila Pate, Venus Dodson - vo

Rec.: Power Station, NYC, NY.
Originally released in 1978 as Atlantic 19221.
 
 
Exact Audio Copy V0.99 prebeta 5 from 4. May 2009

EAC extraction logfile from 10. December 2009, 10:40

Herbie Mann / Super Mann

Used drive : Optiarc DVD RW AD-5170A Adapter: 0 ID: 1

Read mode : SecureUtilize accurate stream : YesDefeat audio cache : YesMake use of C2 pointers : No

Read offset correction : 48Overread into Lead-In and Lead-Out : NoFill up missing offset samples with silence : YesDelete leading and trailing silent blocks : NoNull samples used in CRC calculations : YesUsed interface : Installed external ASPI interfaceGap handling : Appended to previous track

Used output format : User Defined EncoderSelected bitrate : 128 kBit/sQuality : HighAdd ID3 tag : NoCommand line compressor : C:\Programmi\Exact Audio Copy\Flac\flac.exeAdditional command line options : -8 -V -T "artist=%a" -T "title=%t" -T "album=%g" -T "date=%y" -T "tracknumber=%n" -T "genre=%m" %s

TOC of the extracted CD

Track | Start | Length | Start sector | End sector --------------------------------------------------------- 1 | 0:00.00 | 5:34.63 | 0 | 25112 2 | 5:34.63 | 5:16.14 | 25113 | 48826 3 | 10:51.02 | 5:01.18 | 48827 | 71419 4 | 15:52.20 | 6:08.11 | 71420 | 99030 5 | 22:00.31 | 4:28.09 | 99031 | 119139 6 | 26:28.40 | 5:34.26 | 119140 | 144215 7 | 32:02.66 | 5:42.09 | 144216 | 169874

Track 1

Filename E:\WCD\Herbie Mann - Super Mann + Yellow Fever\Super Mann\01 - Superman.wav

Pre-gap length 0:00:02.00

Peak level 100.0 % Track quality 100.0 % Test CRC 93CE7306 Copy CRC 93CE7306 Accurately ripped (confidence 1) [ACF4737A] Copy OK

Track 2

Filename E:\WCD\Herbie Mann - Super Mann + Yellow Fever\Super Mann\02 - Etagui.wav

Pre-gap length 0:00:02.00

Peak level 100.0 % Track quality 100.0 % Test CRC A1BAD4B1 Copy CRC A1BAD4B1 Accurately ripped (confidence 1) [9BFCE221] Copy OK

Track 3

Filename E:\WCD\Herbie Mann - Super Mann + Yellow Fever\Super Mann\03 - Jisco Dazz.wav

Pre-gap length 0:00:02.00

Peak level 100.0 % Track quality 100.0 % Test CRC 6F7F16DB Copy CRC 6F7F16DB Accurately ripped (confidence 1) [E172A2E2] Copy OK

Track 4

Filename E:\WCD\Herbie Mann - Super Mann + Yellow Fever\Super Mann\04 - Rock Freak.wav

Pre-gap length 0:00:02.00

Peak level 100.0 % Track quality 100.0 % Test CRC 4B5AF7DC Copy CRC 4B5AF7DC Accurately ripped (confidence 1) [F7CB2D7D] Copy OK

Track 5

Filename E:\WCD\Herbie Mann - Super Mann + Yellow Fever\Super Mann\05 - Stomp Your Feet.wav

Pre-gap length 0:00:02.00

Peak level 100.0 % Track quality 100.0 % Test CRC 554DB6A0 Copy CRC 554DB6A0 Accurately ripped (confidence 1) [F52AAE30] Copy OK

Track 6

Filename E:\WCD\Herbie Mann - Super Mann + Yellow Fever\Super Mann\06 - Body Oil.wav

Pre-gap length 0:00:02.01

Peak level 100.0 % Track quality 100.0 % Test CRC 69A47B76 Copy CRC 69A47B76 Accurately ripped (confidence 1) [73AA0B74] Copy OK

Track 7

Filename E:\WCD\Herbie Mann - Super Mann + Yellow Fever\Super Mann\07 - Django.wav

Pre-gap length 0:00:02.01

Peak level 100.0 % Track quality 100.0 % Test CRC 95D856B0 Copy CRC 95D856B0 Accurately ripped (confidence 1) [65A4A707] Copy OK

All tracks accurately ripped

No errors occurred

End of status report
 
REM GENRE DiscoREM DATE 1978REM DISCID 5508D907REM COMMENT "ExactAudioCopy v0.99pb5"PERFORMER "Herbie Mann"TITLE "Super Mann"FILE "01 - Superman.wav" WAVE TRACK 01 AUDIO TITLE "Superman" PERFORMER "Herbie Mann" ISRC USAT20108972 INDEX 01 00:00:00 TRACK 02 AUDIO TITLE "Etagui" PERFORMER "Herbie Mann" ISRC USAT20108973 INDEX 00 05:32:63FILE "02 - Etagui.wav" WAVE INDEX 01 00:00:00 TRACK 03 AUDIO TITLE "Jisco Dazz" PERFORMER "Herbie Mann" ISRC USAT20108974 INDEX 00 05:14:14FILE "03 - Jisco Dazz.wav" WAVE INDEX 01 00:00:00 TRACK 04 AUDIO TITLE "Rock Freak" PERFORMER "Herbie Mann" ISRC USAT20108975 INDEX 00 04:59:18FILE "04 - Rock Freak.wav" WAVE INDEX 01 00:00:00 TRACK 05 AUDIO TITLE "Stomp Your Feet" PERFORMER "Herbie Mann" ISRC USAT20108976 INDEX 00 06:06:11FILE "05 - Stomp Your Feet.wav" WAVE INDEX 01 00:00:00 TRACK 06 AUDIO TITLE "Body Oil" PERFORMER "Herbie Mann" ISRC USAT20108971 INDEX 00 04:26:08FILE "06 - Body Oil.wav" WAVE INDEX 01 00:00:00 TRACK 07 AUDIO TITLE "Django" PERFORMER "Herbie Mann" ISRC USAT20108977 INDEX 00 05:32:25FILE "07 - Django.wav" WAVE INDEX 01 00:00:00
Треклист:
01. Yellow Fever (7:48)
02. Comin' Home Baby (7:49)
03. Hey Pocky A-Way (5:10)
04. City Of Dreams (7:48)
05. Kidnappin' Lover (7:40)
06. Walk On The Wild Side (9:40)

Personnel:
Herbie Mann - fl, sax, vo (3)
Bob Smith, Danny Cahn, George Young, Joe Shepley, Michael Brecker, Randy Brecker, Armando Noriega - tp
Jeff Schoen - key
Raymond Gomez - g
Neil Jason - b
Al Izzo - d
Brenda White, Christe Shire, Diva Grey, Herbie Mann, Phil Anastasi, Valerie Wilson, Yvonne Lewis - vo

Rec.: Soundmixers Studio, NYC, NY.
Originally released in 1972 as Atlantic 19252.
 
 
Exact Audio Copy V0.99 prebeta 5 from 4. May 2009

EAC extraction logfile from 10. December 2009, 11:00

Herbie Mann / Yellow Fever

Used drive : Optiarc DVD RW AD-5170A Adapter: 0 ID: 1

Read mode : SecureUtilize accurate stream : YesDefeat audio cache : YesMake use of C2 pointers : No

Read offset correction : 48Overread into Lead-In and Lead-Out : NoFill up missing offset samples with silence : YesDelete leading and trailing silent blocks : NoNull samples used in CRC calculations : YesUsed interface : Installed external ASPI interfaceGap handling : Appended to previous track

Used output format : User Defined EncoderSelected bitrate : 128 kBit/sQuality : HighAdd ID3 tag : NoCommand line compressor : C:\Programmi\Exact Audio Copy\Flac\flac.exeAdditional command line options : -8 -V -T "artist=%a" -T "title=%t" -T "album=%g" -T "date=%y" -T "tracknumber=%n" -T "genre=%m" %s

TOC of the extracted CD

Track | Start | Length | Start sector | End sector --------------------------------------------------------- 1 | 0:00.00 | 7:47.60 | 0 | 35084 2 | 7:47.60 | 7:48.62 | 35085 | 70246 3 | 15:36.47 | 5:09.50 | 70247 | 93471 4 | 20:46.22 | 7:48.18 | 93472 | 128589 5 | 28:34.40 | 7:40.20 | 128590 | 163109 6 | 36:14.60 | 9:40.16 | 163110 | 206625

Track 1

Filename E:\WCD\Herbie Mann - Super Mann + Yellow Fever\Yellow Fever\01 - Yellow Fever.wav

Pre-gap length 0:00:02.00

Peak level 100.0 % Track quality 99.9 % Test CRC D0BE3745 Copy CRC D0BE3745 Accurately ripped (confidence 1) [6DBB68ED] Copy OK

Track 2

Filename E:\WCD\Herbie Mann - Super Mann + Yellow Fever\Yellow Fever\02 - Comin' Home Baby.wav

Pre-gap length 0:00:02.00

Peak level 100.0 % Track quality 99.9 % Test CRC E4DF17B1 Copy CRC E4DF17B1 Accurately ripped (confidence 1) [A76B1C2F] Copy OK

Track 3

Filename E:\WCD\Herbie Mann - Super Mann + Yellow Fever\Yellow Fever\03 - Hey Pocky A-Way.wav

Pre-gap length 0:00:02.01

Peak level 100.0 % Track quality 100.0 % Test CRC 0A1D2CFC Copy CRC 0A1D2CFC Accurately ripped (confidence 1) [E21EF1ED] Copy OK

Track 4

Filename E:\WCD\Herbie Mann - Super Mann + Yellow Fever\Yellow Fever\04 - City Of Dreams.wav

Pre-gap length 0:00:02.01

Peak level 100.0 % Track quality 100.0 % Test CRC 8D196E5B Copy CRC 8D196E5B Accurately ripped (confidence 1) [9033F7E5] Copy OK

Track 5

Filename E:\WCD\Herbie Mann - Super Mann + Yellow Fever\Yellow Fever\05 - Kidnappin' Lover.wav

Pre-gap length 0:00:02.01

Peak level 100.0 % Track quality 100.0 % Test CRC 26ABECE8 Copy CRC 26ABECE8 Accurately ripped (confidence 1) [4D716D7A] Copy OK

Track 6

Filename E:\WCD\Herbie Mann - Super Mann + Yellow Fever\Yellow Fever\06 - Walk On The Wild Side.wav

Pre-gap length 0:00:02.00

Peak level 100.0 % Track quality 100.0 % Test CRC F0E5B685 Copy CRC F0E5B685 Accurately ripped (confidence 1) [A659B691] Copy OK

All tracks accurately ripped

No errors occurred

End of status report
 
REM GENRE DiscoREM DATE 1972REM DISCID 570AC306REM COMMENT "ExactAudioCopy v0.99pb5"PERFORMER "Herbie Mann"TITLE "Yellow Fever"FILE "01 - Yellow Fever.wav" WAVE TRACK 01 AUDIO TITLE "Yellow Fever" PERFORMER "Herbie Mann" ISRC USAT20108978 INDEX 01 00:00:00 TRACK 02 AUDIO TITLE "Comin' Home Baby" PERFORMER "Herbie Mann" ISRC USAT20108979 INDEX 00 07:45:60FILE "02 - Comin' Home Baby.wav" WAVE INDEX 01 00:00:00 TRACK 03 AUDIO TITLE "Hey Pocky A-Way" PERFORMER "Herbie Mann" ISRC USAT20108980 INDEX 00 07:46:61FILE "03 - Hey Pocky A-Way.wav" WAVE INDEX 01 00:00:00 TRACK 04 AUDIO TITLE "City Of Dreams" PERFORMER "Herbie Mann" ISRC USAT20108981 INDEX 00 05:07:49FILE "04 - City Of Dreams.wav" WAVE INDEX 01 00:00:00 TRACK 05 AUDIO TITLE "Kidnappin' Lover" PERFORMER "Herbie Mann" ISRC USAT20108982 INDEX 00 07:46:17FILE "05 - Kidnappin' Lover.wav" WAVE INDEX 01 00:00:00 TRACK 06 AUDIO TITLE "Walk On The Wild Side" PERFORMER "Herbie Mann" ISRC USAT20108983 INDEX 00 07:38:20FILE "06 - Walk On The Wild Side.wav" WAVE INDEX 01 00:00:00


Трекер:  [ 28-Янв-2012 20:24 ]

  

Скачать .torrent

Размер .torrent файла 12 KB


Размер: 526 MB
Хэш (hash) релиза: 59ac3f5a74fab5930d2c69ed4d37706e0e60a94c

Еще никто не оставлял запись к записи скачать торрент Herbie Mann — Super Mann . Будь первым!

!Обратная связь