Скачать через торрент музыку Una Mae Carlisle — 1944-1950 {The Chronological Classics, 1265} — 2002, FLAC бесплатно без регистрации torrent

Если у вас наблюдаются проблемы со скриншотами, переходом по ссылками, скачиванием торрентов - проблемы в блокировщике рекламы AdBlock. #хорошегоДня!


Статистика раздачи
Размер:  177 MB   |    Зарегистрирован:  5 лет 8 месяцев   |    .torrent скачан:  33 раза   |   
Раздают:  1  
   
Загрузка...
 
Автор Сообщение

Umakiro

avatar Umakiro


Una Mae Carlisle – 1944-1950 {The Chronological Classics, 1265}

Жанр: Vocal Jazz
Год издания диска: 2002
Издатель (лейбл): Classics
Номер по каталогу: 1265
Аудиокодек: FLAC (*.flac)
Тип рипа: tracks+.cue
Битрейт аудио: lossless
Продолжительность: 69:31
Источник (релизер): вата
Наличие сканов в содержимом раздачи: да

Треклист:
01. The Rest Of My Life (2:47)
02. That Glory Day (2:46)
03. That's My Man (2:59)
04. If It Ain't Mine (2:41)
05. I'm Crazy 'Bout My Baby (2:37)
06. Throw It Out Your Mind (2:43)
07. Stop Goin' Through The Motions (2:55)
08. Tonight Be Tender To Me (2:43)
09. Ohi-Ohio Boogie (2:58)
10. Frenzy (3:12)
11. I Bought Myself A Book (2:29)
12. The Best Idea You Had (2:18)
13. Mad About Love (2:09)
14. We've All Got A Lesson To Learn (2:41)
15. Three Little Bugs (2:38)
16. Tired Hands (2:49)
17. Strange (3:03)
18. Long (2:54)
19. Gone (3:12)
20. There's Something About The Boogie / A One Minute Journey To Boogieland / Una's Boogie (3:16)
21. A Rhythm Mood / Escape To Nowhere / Jumpin' With The Stars (2:48)
22. Troubled Waters / War / Democracy Triumphant (2:34)
23. The Great Mesmer / Hypnotized / Piano Magic (2:31)
24. Forgive Me For Gettin' Forgetful / Good Better Best / Baby Please Be Good To Me (2:40)
25. Do / Doodle Doo / Perfectly (3:05)
 
 
EAC extraction logfile from 5. November 2007, 13:06 for CDUna Mae Carlisle / 1944-1950

Used drive : HL-DT-STCDRW/DVD GCC4482 Adapter: 1 ID: 0Read mode : Secure with NO C2, accurate stream, disable cacheRead offset correction : 6Overread into Lead-In and Lead-Out : No

Used output format : C:\Eac\Codecs\flac.exe (User Defined Encoder) 320 kBit/s Additional command line options : -8 -V -T "artist=%a" -T "title=%t" -T "album=%g" -T "date=%y" -T "tracknumber=%n" -T "genre=%m" -T "comment=EAC Flac 1.1.2 -8" %s

Other options : Fill up missing offset samples with silence : Yes Delete leading and trailing silent blocks : No Installed external ASPI interface

Track 1 Filename C:\Documents and Settings\una\01 - The Rest Of My Life.wav

Pre-gap length 0:00:02.00

Peak level 100.0 % Track quality 100.0 % Test CRC C045D8AD Copy CRC C045D8AD Copy OK

Track 2 Filename C:\Documents and Settings\una\02 - That Glory Day.wav

Pre-gap length 0:00:03.00

Peak level 99.0 % Track quality 100.0 % Test CRC 796010D7 Copy CRC 796010D7 Copy OK

Track 3 Filename C:\Documents and Settings\una\03 - That's My Man.wav

Pre-gap length 0:00:03.00

Peak level 100.0 % Track quality 100.0 % Test CRC D7350AEC Copy CRC D7350AEC Copy OK

Track 4 Filename C:\Documents and Settings\una\04 - If It Ain't Mine.wav

Pre-gap length 0:00:03.00

Peak level 99.9 % Track quality 100.0 % Test CRC 5A52FA22 Copy CRC 5A52FA22 Copy OK

Track 5 Filename C:\Documents and Settings\una\05 - I'm Crazy 'Bout My Baby.wav

Pre-gap length 0:00:03.00

Peak level 79.4 % Track quality 100.0 % Test CRC 6116B771 Copy CRC 6116B771 Copy OK

Track 6 Filename C:\Documents and Settings\una\06 - Throw It Out Your Mind.wav

Pre-gap length 0:00:03.00

Peak level 99.9 % Track quality 99.9 % Test CRC 9502FBF8 Copy CRC 9502FBF8 Copy OK

Track 7 Filename C:\Documents and Settings\una\07 - Stop Goin' Through The Motions.wav

Pre-gap length 0:00:03.00

Peak level 99.9 % Track quality 100.0 % Test CRC 58DE678E Copy CRC 58DE678E Copy OK

Track 8 Filename C:\Documents and Settings\una\08 - Tonight Be Tender To Me.wav

Pre-gap length 0:00:03.00

Peak level 100.0 % Track quality 100.0 % Test CRC 801A82F0 Copy CRC 801A82F0 Copy OK

Track 9 Filename C:\Documents and Settings\una\09 - Ohi-Ohio Boogie.wav

Pre-gap length 0:00:03.00

Peak level 99.9 % Track quality 100.0 % Test CRC 39154CB6 Copy CRC 39154CB6 Copy OK

Track 10 Filename C:\Documents and Settings\una\10 - Frenzy.wav

Pre-gap length 0:00:03.00

Peak level 97.7 % Track quality 100.0 % Test CRC 374878F0 Copy CRC 374878F0 Copy OK

Track 11 Filename C:\Documents and Settings\una\11 - I Bought Myself A Book.wav

Pre-gap length 0:00:03.00

Peak level 99.9 % Track quality 100.0 % Test CRC EFDC8BF5 Copy CRC EFDC8BF5 Copy OK

Track 12 Filename C:\Documents and Settings\una\12 - The Best Idea You Had.wav

Pre-gap length 0:00:03.00

Peak level 100.0 % Track quality 100.0 % Test CRC 4322B0E9 Copy CRC 4322B0E9 Copy OK

Track 13 Filename C:\Documents and Settings\una\13 - Mad About Love.wav

Pre-gap length 0:00:03.00

Peak level 99.9 % Track quality 100.0 % Test CRC 4B27245B Copy CRC 4B27245B Copy OK

Track 14 Filename C:\Documents and Settings\una\14 - We've All Got A Lesson To Learn.wav

Pre-gap length 0:00:03.00

Peak level 100.0 % Track quality 100.0 % Test CRC FD42892E Copy CRC FD42892E Copy OK

Track 15 Filename C:\Documents and Settings\una\15 - Three Little Bugs.wav

Pre-gap length 0:00:03.00

Peak level 100.0 % Track quality 100.0 % Test CRC A274994E Copy CRC A274994E Copy OK

Track 16 Filename C:\Documents and Settings\una\16 - Tired Hands.wav

Pre-gap length 0:00:03.00

Peak level 99.9 % Track quality 100.0 % Test CRC 99B80987 Copy CRC 99B80987 Copy OK

Track 17 Filename C:\Documents and Settings\una\17 - Strange.wav

Pre-gap length 0:00:03.00

Peak level 100.0 % Track quality 100.0 % Test CRC 1BA2CEC5 Copy CRC 1BA2CEC5 Copy OK

Track 18 Filename C:\Documents and Settings\una\18 - Long.wav

Pre-gap length 0:00:03.00

Peak level 100.0 % Track quality 100.0 % Test CRC D86FF59C Copy CRC D86FF59C Copy OK

Track 19 Filename C:\Documents and Settings\una\19 - Gone.wav

Pre-gap length 0:00:03.00

Peak level 100.0 % Track quality 100.0 % Test CRC 2565CD10 Copy CRC 2565CD10 Copy OK

Track 20 Filename C:\Documents and Settings\una\20 - There's Something About the Boogie, A One Minute Journey to Boogieland.wav

Pre-gap length 0:00:03.00

Peak level 99.9 % Track quality 100.0 % Test CRC 755B562E Copy CRC 755B562E Copy OK

Track 21 Filename C:\Documents and Settings\una\21 - A Rhythm Mood, Escape to Nowhere, Jumpin' With the Stars.wav

Pre-gap length 0:00:03.00

Peak level 99.9 % Track quality 100.0 % Test CRC E7E49E9F Copy CRC E7E49E9F Copy OK

Track 22 Filename C:\Documents and Settings\una\22 - Troubled Waters, War, Democracy Triumphant.wav

Pre-gap length 0:00:03.00

Peak level 99.9 % Track quality 100.0 % Test CRC C5B9B3FD Copy CRC C5B9B3FD Copy OK

Track 23 Filename C:\Documents and Settings\una\23 - The Great Mesmer, Hypnotized, Piano Magic.wav

Pre-gap length 0:00:03.00

Peak level 100.0 % Track quality 100.0 % Test CRC 2C8BB93C Copy CRC 2C8BB93C Copy OK

Track 24 Filename C:\Documents and Settings\una\24 - Forgive Me For Gettin' Forgetful, Good Better Best, Baby Please Be Good.wav

Pre-gap length 0:00:03.00

Peak level 99.9 % Track quality 100.0 % Test CRC 52227591 Copy CRC 52227591 Copy OK

Track 25 Filename C:\Documents and Settings\una\25 - Do, Doodle Doo, Perfectly.wav

Pre-gap length 0:00:03.00

Peak level 99.9 % Track quality 100.0 % Test CRC AC91B2DC Copy CRC AC91B2DC Copy OK

No errors occured

End of status report
 
REM DATE 2002REM GENRE VocalREM DISCID 75104B19REM COMMENT "ExactAudioCopy v0.95b4"PERFORMER "Una Mae Carlisle"TITLE "1944-1950 {Chronological Classics, 1265}"FILE "01. The Rest Of My Life.flac" WAVE TRACK 01 AUDIO TITLE "The Rest Of My Life" PERFORMER "Una Mae Carlisle" FLAGS DCP INDEX 01 00:00:00 TRACK 02 AUDIO TITLE "That Glory Day" PERFORMER "Una Mae Carlisle" FLAGS DCP INDEX 00 02:44:09FILE "02. That Glory Day.flac" WAVE INDEX 01 00:00:00 TRACK 03 AUDIO TITLE "That's My Man" PERFORMER "Una Mae Carlisle" FLAGS DCP INDEX 00 02:42:48FILE "03. That's My Man.flac" WAVE INDEX 01 00:00:00 TRACK 04 AUDIO TITLE "If It Ain't Mine" PERFORMER "Una Mae Carlisle" FLAGS DCP INDEX 00 02:56:30FILE "04. If It Ain't Mine.flac" WAVE INDEX 01 00:00:00 TRACK 05 AUDIO TITLE "I'm Crazy 'Bout My Baby" PERFORMER "Una Mae Carlisle" FLAGS DCP INDEX 00 02:38:13FILE "05. I'm Crazy 'Bout My Baby.flac" WAVE INDEX 01 00:00:00 TRACK 06 AUDIO TITLE "Throw It Out Your Mind" PERFORMER "Una Mae Carlisle" FLAGS DCP INDEX 00 02:33:39FILE "06. Throw It Out Your Mind.flac" WAVE INDEX 01 00:00:00 TRACK 07 AUDIO TITLE "Stop Goin' Through The Motions" PERFORMER "Una Mae Carlisle" FLAGS DCP INDEX 00 02:40:00FILE "07. Stop Goin' Through The Motions.flac" WAVE INDEX 01 00:00:00 TRACK 08 AUDIO TITLE "Tonight Be Tender To Me" PERFORMER "Una Mae Carlisle" FLAGS DCP INDEX 00 02:52:19FILE "08. Tonight Be Tender To Me.flac" WAVE INDEX 01 00:00:00 TRACK 09 AUDIO TITLE "Ohi-Ohio Boogie" PERFORMER "Una Mae Carlisle" FLAGS DCP INDEX 00 02:40:34FILE "09. Ohi-Ohio Boogie.flac" WAVE INDEX 01 00:00:00 TRACK 10 AUDIO TITLE "Frenzy" PERFORMER "Una Mae Carlisle" FLAGS DCP INDEX 00 02:55:10FILE "10. Frenzy.flac" WAVE INDEX 01 00:00:00 TRACK 11 AUDIO TITLE "I Bought Myself A Book" PERFORMER "Una Mae Carlisle" FLAGS DCP INDEX 00 03:09:21FILE "11. I Bought Myself A Book.flac" WAVE INDEX 01 00:00:00 TRACK 12 AUDIO TITLE "The Best Idea You Had" PERFORMER "Una Mae Carlisle" FLAGS DCP INDEX 00 02:26:33FILE "12. The Best Idea You Had.flac" WAVE INDEX 01 00:00:00 TRACK 13 AUDIO TITLE "Mad About Love" PERFORMER "Una Mae Carlisle" FLAGS DCP INDEX 00 02:14:41FILE "13. Mad About Love.flac" WAVE INDEX 01 00:00:00 TRACK 14 AUDIO TITLE "We've All Got A Lesson To Learn" PERFORMER "Una Mae Carlisle" FLAGS DCP INDEX 00 02:06:31FILE "14. We've All Got A Lesson To Learn.flac" WAVE INDEX 01 00:00:00 TRACK 15 AUDIO TITLE "Three Little Bugs" PERFORMER "Una Mae Carlisle" FLAGS DCP INDEX 00 02:37:64FILE "15. Three Little Bugs.flac" WAVE INDEX 01 00:00:00 TRACK 16 AUDIO TITLE "Tired Hands" PERFORMER "Una Mae Carlisle" FLAGS DCP INDEX 00 02:35:36FILE "16. Tired Hands.flac" WAVE INDEX 01 00:00:00 TRACK 17 AUDIO TITLE "Strange" PERFORMER "Una Mae Carlisle" FLAGS DCP INDEX 00 02:46:09FILE "17. Strange.flac" WAVE INDEX 01 00:00:00 TRACK 18 AUDIO TITLE "Long" PERFORMER "Una Mae Carlisle" FLAGS DCP INDEX 00 03:00:26FILE "18. Long.flac" WAVE INDEX 01 00:00:00 TRACK 19 AUDIO TITLE "Gone" PERFORMER "Una Mae Carlisle" FLAGS DCP INDEX 00 02:51:31FILE "19. Gone.flac" WAVE INDEX 01 00:00:00 TRACK 20 AUDIO TITLE "There's Something About The Boogie / A One Minute Journey To Boogieland / Una's Boogie" PERFORMER "Una Mae Carlisle" FLAGS DCP INDEX 00 03:08:52FILE "20. There's Something About The Boogie....flac" WAVE INDEX 01 00:00:00 TRACK 21 AUDIO TITLE "A Rhythm Mood / Escape To Nowhere / Jumpin' With The Stars" PERFORMER "Una Mae Carlisle" FLAGS DCP INDEX 00 03:13:09FILE "21. A Rhythm Mood - Escape To Nowhere....flac" WAVE INDEX 01 00:00:00 TRACK 22 AUDIO TITLE "Troubled Waters / War / Democracy Triumphant" PERFORMER "Una Mae Carlisle" FLAGS DCP INDEX 00 02:44:39FILE "22. Troubled Waters - War - Democracy....flac" WAVE INDEX 01 00:00:00 TRACK 23 AUDIO TITLE "The Great Mesmer / Hypnotized / Piano Magic" PERFORMER "Una Mae Carlisle" FLAGS DCP INDEX 00 02:31:34FILE "23. The Great Mesmer - Hypnotized....flac" WAVE INDEX 01 00:00:00 TRACK 24 AUDIO TITLE "Forgive Me For Gettin' Forgetful / Good Better Best / Baby Please Be Good To Me" PERFORMER "Una Mae Carlisle" FLAGS DCP INDEX 00 02:28:26FILE "24. Forgive Me For Gettin' Forgetful....flac" WAVE INDEX 01 00:00:00 TRACK 25 AUDIO TITLE "Do / Doodle Doo / Perfectly" PERFORMER "Una Mae Carlisle" FLAGS DCP INDEX 00 02:37:25FILE "25. Do - Doodle Doo - Perfectly.flac" WAVE INDEX 01 00:00:00
 
[CUETools log; Date: 20.01.2012 16:14:11; Version: 2.0.9][CTDB TOCID: 35RohtppN0dwf1ehh3iJfmNEWVg-] disk not present in database.[AccurateRip ID: 003dbb7e-04573aa3-75104b19] found.Track [ CRC ] Status 01 [0e82935b] (1/1) Accurately ripped 02 [427743d3] (1/1) Accurately ripped 03 [febae561] (1/1) Accurately ripped 04 [7275c64e] (1/1) Accurately ripped 05 [a79a34f8] (1/1) Accurately ripped 06 [9e1ab6a4] (1/1) Accurately ripped 07 [56193d33] (1/1) Accurately ripped 08 [a52e2940] (1/1) Accurately ripped 09 [bed7b503] (1/1) Accurately ripped 10 [80145d05] (1/1) Accurately ripped 11 [5d517c5c] (1/1) Accurately ripped 12 [256ce290] (1/1) Accurately ripped 13 [1b6f33b2] (1/1) Accurately ripped 14 [f15926fc] (1/1) Accurately ripped 15 [2d62df1b] (1/1) Accurately ripped 16 [b3b5c308] (1/1) Accurately ripped 17 [d744666d] (1/1) Accurately ripped 18 [9c5a2a0e] (1/1) Accurately ripped 19 [713000e7] (1/1) Accurately ripped 20 [df1f1621] (1/1) Accurately ripped 21 [be890ceb] (1/1) Accurately ripped 22 [c93defab] (1/1) Accurately ripped 23 [41f73f30] (1/1) Accurately ripped 24 [536f302b] (1/1) Accurately ripped 25 [b5495d98] (1/1) Accurately ripped

Track Peak [ CRC32 ] [W/O NULL] [ LOG ] -- 100,0 [7D1CAC90] [69C601CD] 01 100,0 [C045D8AD] [9483E047] CRC32 02 99,0 [796010D7] [A8139085] CRC32 03 100,0 [D7350AEC] [94AB952F] CRC32 04 99,9 [5A52FA22] [1463381E] CRC32 05 79,4 [6116B771] [78EB0C42] CRC32 06 99,9 [9502FBF8] [88CA3A5C] CRC32 07 99,9 [58DE678E] [E9758284] CRC32 08 100,0 [801A82F0] [3782588C] CRC32 09 99,9 [39154CB6] [3E16711D] CRC32 10 97,7 [374878F0] [9DE4B14C] CRC32 11 99,9 [EFDC8BF5] [6C248ACA] CRC32 12 100,0 [4322B0E9] [B5829BA6] CRC32 13 99,9 [4B27245B] [F0F88403] CRC32 14 100,0 [FD42892E] [C1765248] CRC32 15 99,9 [A274994E] [ACA54912] CRC32 16 99,9 [99B80987] [E6F6CD95] CRC32 17 100,0 [1BA2CEC5] [A09E3EB1] CRC32 18 100,0 [D86FF59C] [508F2531] CRC32 19 99,9 [2565CD10] [8C2D0DC0] CRC32 20 99,9 [755B562E] [F4CEB9B3] CRC32 21 99,9 [E7E49E9F] [749328AF] CRC32 22 99,9 [C5B9B3FD] [5786C366] CRC32 23 99,9 [2C8BB93C] [59FE909D] CRC32 24 99,9 [52227591] [DA1C19AA] CRC32 25 99,9 [AC91B2DC] [887B258D] CRC32
 


Трекер:  [ 28-Янв-2012 20:22 ]

  

Скачать .torrent

Размер .torrent файла 16 KB


Размер: 177 MB
Хэш (hash) релиза: 3778f78b15a344dc72a2680861fc9d09d3fd9338

Еще никто не оставлял запись к записи скачать торрент Una Mae Carlisle — 1944-1950 {The Chronological Classics, 1265} — 2002, FLAC . Будь первым!

!Обратная связь