Скачать через торрент музыку Art Tatum - 1940-1944 {The Chronological Classics, 800} - 1995, FLAC бесплатно без регистрации torrent

Если у вас наблюдаются проблемы со скриншотами, переходом по ссылками, скачиванием торрентов - проблемы в блокировщике рекламы AdBlock. #хорошегоДня!


Статистика раздачи
Размер:  167 MB   |    Зарегистрирован:  5 лет 8 месяцев   |    .torrent скачан:  28 раз   |   
Раздают:  1  
   
Загрузка...
 
Автор Сообщение

Umakiro

avatar Umakiro


Art Tatum – 1940-1944 {The Chronological Classics, 800}

Жанр: Bop, Piano Jazz
Год издания диска: 1995
Издатель (лейбл): Classics
Номер по каталогу: 800
Аудиокодек: FLAC (*.flac)
Тип рипа: tracks+.cue
Битрейт аудио: lossless
Продолжительность: 57:10
Источник: вата
Наличие сканов в содержимом раздачи: да

Треклист:
01. Begin The Beguine (2:43)
02. Rosetta (2:50)
03. (Back Home Again In) Indiana (2:55)
04. Wee Baby Blues (2:55)
05. Stompin' At The Savoy (3:14)
06. Last Goodbye Blues (3:15)
07. Battery Bounce (2:32)
08. Lucille (3:26)
09. Rock Me, Mama (2:58)
10. Corrine, Corrina (2:30)
11. Lonesome Graveyard (3:16)
12. I Got Rhythm (2:17)
13. Cocktails For Two (2:40)
14. I Ain't Got Nobody (2:33)
15. After You've Gone (2:28)
16. Moonglow (2:36)
17. Deep Purple (3:04)
18. I Would Do Anything For You (2:33)
19. Liza (1:58)
20. Tea For Two (2:05)
21. Honeysuckle Rose (2:21)
 
 
Exact Audio Copy V1.0 beta 2 from 29. April 2011

EAC extraction logfile from 25. October 2011, 10:11

Art Tatum / 1940-1944

Used drive : Optiarc DVD RW AD-7170A Adapter: 1 ID: 0

Read mode : SecureUtilize accurate stream : YesDefeat audio cache : YesMake use of C2 pointers : No

Read offset correction : 48Overread into Lead-In and Lead-Out : NoFill up missing offset samples with silence : YesDelete leading and trailing silent blocks : NoNull samples used in CRC calculations : YesUsed interface : Native Win32 interface for Win NT & 2000Gap handling : Appended to previous track

Used output format : User Defined EncoderSelected bitrate : 1024 kBit/sQuality : HighAdd ID3 tag : NoCommand line compressor : C:\Program Files (x86)\Exact Audio Copy\Flac\flac.exeAdditional command line options : -8 -V -T "ARTIST=%artist%" -T "TITLE=%title%" -T "ALBUM=%albumtitle%" -T "DATE=%year%" -T "TRACKNUMBER=%tracknr%" -T "GENRE=%genre%" -T "PERFORMER=%albuminterpret%" -T "COMPOSER=%composer%" %haslyrics%--tag-from-file=LYRICS

TOC of the extracted CD

Track | Start | Length | Start sector | End sector --------------------------------------------------------- 1 | 0:00.32 | 2:43.03 | 32 | 12259 2 | 2:43.35 | 2:50.00 | 12260 | 25009 3 | 5:33.35 | 2:55.05 | 25010 | 38139 4 | 8:28.40 | 2:55.17 | 38140 | 51281 5 | 11:23.57 | 3:14.10 | 51282 | 65841 6 | 14:37.67 | 3:14.63 | 65842 | 80454 7 | 17:52.55 | 2:32.37 | 80455 | 91891 8 | 20:25.17 | 3:25.73 | 91892 | 107339 9 | 23:51.15 | 2:58.27 | 107340 | 120716 10 | 26:49.42 | 2:29.55 | 120717 | 131946 11 | 29:19.22 | 3:16.28 | 131947 | 146674 12 | 32:35.50 | 2:17.22 | 146675 | 156971 13 | 34:52.72 | 2:39.68 | 156972 | 168964 14 | 37:32.65 | 2:33.35 | 168965 | 180474 15 | 40:06.25 | 2:27.65 | 180475 | 191564 16 | 42:34.15 | 2:35.42 | 191565 | 203231 17 | 45:09.57 | 3:04.23 | 203232 | 217054 18 | 48:14.05 | 2:32.65 | 217055 | 228519 19 | 50:46.70 | 1:58.02 | 228520 | 237371 20 | 52:44.72 | 2:05.10 | 237372 | 246756 21 | 54:50.07 | 2:20.50 | 246757 | 257306

Track 1

Filename E:\Vuze_BitTorrent_DLs\EAC Rips\01 - Art Tatum - Begin the Beguine.wav

Pre-gap length 0:00:02.42

Peak level 86.3 % Extraction speed 3.9 X Track quality 100.0 % Test CRC 55830E31 Copy CRC 55830E31 Track not present in AccurateRip database Copy OK

Track 2

Filename E:\Vuze_BitTorrent_DLs\EAC Rips\02 - Art Tatum - Rosetta.wav

Pre-gap length 0:00:01.44

Peak level 91.5 % Extraction speed 3.3 X Track quality 99.9 % Test CRC 7C5A253A Copy CRC 7C5A253A Track not present in AccurateRip database Copy OK

Track 3

Filename E:\Vuze_BitTorrent_DLs\EAC Rips\03 - Art Tatum - (Back Home Again in) Indiana.wav

Pre-gap length 0:00:01.77

Peak level 76.7 % Extraction speed 4.6 X Track quality 100.0 % Test CRC 47F84B5D Copy CRC 47F84B5D Track not present in AccurateRip database Copy OK

Track 4

Filename E:\Vuze_BitTorrent_DLs\EAC Rips\04 - Art Tatum And His Band - Wee baby Blues.wav

Pre-gap length 0:00:01.30

Peak level 94.7 % Extraction speed 4.8 X Track quality 100.0 % Test CRC E1608D16 Copy CRC E1608D16 Track not present in AccurateRip database Copy OK

Track 5

Filename E:\Vuze_BitTorrent_DLs\EAC Rips\05 - Art Tatum And His Band - Stompin' at the Savoy.wav

Pre-gap length 0:00:01.46

Peak level 99.5 % Extraction speed 5.2 X Track quality 100.0 % Test CRC 3D75176D Copy CRC 3D75176D Track not present in AccurateRip database Copy OK

Track 6

Filename E:\Vuze_BitTorrent_DLs\EAC Rips\06 - Art Tatum And His Band - Last Goodbye Blues.wav

Pre-gap length 0:00:01.49

Peak level 95.1 % Extraction speed 4.4 X Track quality 99.9 % Test CRC CC5419EF Copy CRC CC5419EF Track not present in AccurateRip database Copy OK

Track 7

Filename E:\Vuze_BitTorrent_DLs\EAC Rips\07 - Art Tatum And His Band - Battery Bounce.wav

Pre-gap length 0:00:01.37

Peak level 99.6 % Extraction speed 5.5 X Track quality 100.0 % Test CRC 3CB4C6FA Copy CRC 3CB4C6FA Track not present in AccurateRip database Copy OK

Track 8

Filename E:\Vuze_BitTorrent_DLs\EAC Rips\08 - Art Tatum And His Band - Lucille.wav

Pre-gap length 0:00:01.60

Peak level 71.0 % Extraction speed 6.0 X Track quality 100.0 % Test CRC 8A11DECE Copy CRC 8A11DECE Track not present in AccurateRip database Copy OK

Track 9

Filename E:\Vuze_BitTorrent_DLs\EAC Rips\09 - Art Tatum And His Band - Rock Me, Mama.wav

Pre-gap length 0:00:01.46

Peak level 70.3 % Extraction speed 6.1 X Track quality 100.0 % Test CRC A3142405 Copy CRC A3142405 Track not present in AccurateRip database Copy OK

Track 10

Filename E:\Vuze_BitTorrent_DLs\EAC Rips\10 - Art Tatum And His Band - Corinne, Corrina.wav

Pre-gap length 0:00:01.36

Peak level 72.6 % Extraction speed 4.5 X Track quality 99.9 % Test CRC E7E61E51 Copy CRC E7E61E51 Track not present in AccurateRip database Copy OK

Track 11

Filename E:\Vuze_BitTorrent_DLs\EAC Rips\11 - Art Tatum And His Band - Lonesome Graveyard.wav

Pre-gap length 0:00:01.56

Peak level 74.2 % Extraction speed 6.5 X Track quality 100.0 % Test CRC C90DC636 Copy CRC C90DC636 Track not present in AccurateRip database Copy OK

Track 12

Filename E:\Vuze_BitTorrent_DLs\EAC Rips\12 - Art Tatum Trio - I Got Rhythm.wav

Pre-gap length 0:00:01.06

Peak level 77.5 % Extraction speed 6.3 X Track quality 100.0 % Test CRC DA1F80D8 Copy CRC DA1F80D8 Track not present in AccurateRip database Copy OK

Track 13

Filename E:\Vuze_BitTorrent_DLs\EAC Rips\13 - Art Tatum Trio - Cocktails for Two.wav

Pre-gap length 0:00:01.69

Peak level 74.4 % Extraction speed 6.5 X Track quality 100.0 % Test CRC 469A6733 Copy CRC 469A6733 Track not present in AccurateRip database Copy OK

Track 14

Filename E:\Vuze_BitTorrent_DLs\EAC Rips\14 - Art Tatum Trio - I Ain't Got Nobody.wav

Pre-gap length 0:00:01.46

Peak level 69.3 % Extraction speed 6.7 X Track quality 100.0 % Test CRC 30A1F36A Copy CRC 30A1F36A Track not present in AccurateRip database Copy OK

Track 15

Filename E:\Vuze_BitTorrent_DLs\EAC Rips\15 - Art Tatum Trio - After You've Gone.wav

Pre-gap length 0:00:01.53

Peak level 99.6 % Extraction speed 6.7 X Track quality 100.0 % Test CRC A01D10FC Copy CRC A01D10FC Track not present in AccurateRip database Copy OK

Track 16

Filename E:\Vuze_BitTorrent_DLs\EAC Rips\16 - Art Tatum Trio - MoonGlow.wav

Pre-gap length 0:00:01.50

Peak level 96.8 % Extraction speed 6.8 X Track quality 100.0 % Test CRC 2CC74D7A Copy CRC 2CC74D7A Track not present in AccurateRip database Copy OK

Track 17

Filename E:\Vuze_BitTorrent_DLs\EAC Rips\17 - Art Tatum Trio - Deep Purple.wav

Pre-gap length 0:00:01.42

Peak level 99.8 % Extraction speed 7.3 X Track quality 100.0 % Test CRC AC9BABC5 Copy CRC AC9BABC5 Track not present in AccurateRip database Copy OK

Track 18

Filename E:\Vuze_BitTorrent_DLs\EAC Rips\18 - Art Tatum Trio - I Would Do Anything For You.wav

Pre-gap length 0:00:01.60

Peak level 99.6 % Extraction speed 7.2 X Track quality 100.0 % Test CRC EB3E892C Copy CRC EB3E892C Track not present in AccurateRip database Copy OK

Track 19

Filename E:\Vuze_BitTorrent_DLs\EAC Rips\19 - Art Tatum Trio - Liza.wav

Pre-gap length 0:00:01.20

Peak level 72.2 % Extraction speed 6.9 X Track quality 100.0 % Test CRC 67B264E6 Copy CRC 67B264E6 Track not present in AccurateRip database Copy OK

Track 20

Filename E:\Vuze_BitTorrent_DLs\EAC Rips\20 - Art Tatum Trio - Tea for Two.wav

Pre-gap length 0:00:01.33

Peak level 68.0 % Extraction speed 5.1 X Track quality 99.9 % Test CRC 7F3D5018 Copy CRC 7F3D5018 Track not present in AccurateRip database Copy OK

Track 21

Filename E:\Vuze_BitTorrent_DLs\EAC Rips\21 - Art Tatum Trio - Honeysuckle Rose.wav

Pre-gap length 0:00:01.53

Peak level 99.6 % Extraction speed 7.0 X Track quality 100.0 % Test CRC B980A5CC Copy CRC B980A5CC Track not present in AccurateRip database Copy OK

None of the tracks are present in the AccurateRip database

No errors occurred

End of status report

==== Log checksum 4A98E710014A3F7971884F4C542916B32E536C7698DD4A84F84FE370CE659EBC ====
 
REM GENRE JazzREM DATE 1995REM DISCID 2B0D6615REM COMMENT "ExactAudioCopy v1.0b2"FILE "01. Begin The Beguine.flac" WAVE TRACK 01 AUDIO PREGAP 00:00:32 INDEX 01 00:00:00 TRACK 02 AUDIO INDEX 00 02:41:45FILE "02. Rosetta.flac" WAVE INDEX 01 00:00:00 TRACK 03 AUDIO INDEX 00 02:48:17FILE "03. (Back Home Again In) Indiana.flac" WAVE INDEX 01 00:00:00 TRACK 04 AUDIO INDEX 00 02:53:57FILE "04. Wee Baby Blues.flac" WAVE INDEX 01 00:00:00 TRACK 05 AUDIO INDEX 00 02:53:57FILE "05. Stompin' At The Savoy.flac" WAVE INDEX 01 00:00:00 TRACK 06 AUDIO INDEX 00 03:12:48FILE "06. Last Goodbye Blues.flac" WAVE INDEX 01 00:00:00 TRACK 07 AUDIO INDEX 00 03:13:35FILE "07. Battery Bounce.flac" WAVE INDEX 01 00:00:00 TRACK 08 AUDIO INDEX 00 02:30:67FILE "08. Lucille.flac" WAVE INDEX 01 00:00:00 TRACK 09 AUDIO INDEX 00 03:24:38FILE "09. Rock Me, Mama.flac" WAVE INDEX 01 00:00:00 TRACK 10 AUDIO INDEX 00 02:57:00FILE "10. Corrine, Corrina.flac" WAVE INDEX 01 00:00:00 TRACK 11 AUDIO INDEX 00 02:28:13FILE "11. Lonesome Graveyard.flac" WAVE INDEX 01 00:00:00 TRACK 12 AUDIO INDEX 00 03:15:23FILE "12. I Got Rhythm.flac" WAVE INDEX 01 00:00:00 TRACK 13 AUDIO INDEX 00 02:15:45FILE "13. Cocktails For Two.flac" WAVE INDEX 01 00:00:00 TRACK 14 AUDIO INDEX 00 02:38:33FILE "14. I Ain't Got Nobody.flac" WAVE INDEX 01 00:00:00 TRACK 15 AUDIO INDEX 00 02:31:70FILE "15. After You've Gone.flac" WAVE INDEX 01 00:00:00 TRACK 16 AUDIO INDEX 00 02:26:27FILE "16. Moonglow.flac" WAVE INDEX 01 00:00:00 TRACK 17 AUDIO INDEX 00 02:34:10FILE "17. Deep Purple.flac" WAVE INDEX 01 00:00:00 TRACK 18 AUDIO INDEX 00 03:02:53FILE "18. I Would Do Anything For You.flac" WAVE INDEX 01 00:00:00 TRACK 19 AUDIO INDEX 00 02:31:50FILE "19. Liza.flac" WAVE INDEX 01 00:00:00 TRACK 20 AUDIO INDEX 00 01:56:52FILE "20. Tea For Two.flac" WAVE INDEX 01 00:00:00 TRACK 21 AUDIO INDEX 00 02:03:45FILE "21. Honeysuckle Rose.flac" WAVE INDEX 01 00:00:00


Трекер:  [ 28-Янв-2012 20:20 ]

  

Скачать .torrent

Размер .torrent файла 15 KB


Размер: 167 MB
Хэш (hash) релиза: 69135ee1ba0bac6f14d7ed67bf1deb8c8b2841db

Еще никто не оставлял запись к записи скачать торрент Art Tatum - 1940-1944 {The Chronological Classics, 800} - 1995, FLAC . Будь первым!

!Обратная связь