Скачать через торрент музыку Benny Carter — Jazz Giant бесплатно без регистрации torrent

Если у вас наблюдаются проблемы со скриншотами, переходом по ссылками, скачиванием торрентов - проблемы в блокировщике рекламы AdBlock. #хорошегоДня!


Статистика раздачи
Размер:  247 MB   |    Зарегистрирован:  5 лет 8 месяцев   |    .torrent скачан:  25 раз   |   
Раздают:  1  
   
Загрузка...
 
Автор Сообщение

Umakiro

avatar Umakiro


Benny Carter — Jazz Giant (1958)

Жанр: Bop
Страна-производитель диска: USA
Год издания диска: 2004
Лейбл: Contenporary
Номер по каталогу: CSA-7555-6
Аудио кодек: FLAC (*.flac)
Тип рипа: tracks+.cue
Битрейт аудио: lossless
Продолжительность: 39:12
Риппер: jack335
Сканы есть

Треклист:
01. Old Fashioned Love (7:51)
02. I'm Coming Virginia (5:49)
03. A Walkin' Thing (6:00)
04. Blue Lou (4:58)
05. Ain't She Sweet (3:40)
06. How Can You Lose (6:14)
07. Blues My Naughty Sweetie Gives To Me (4:39)

Personnel:
Benny Carter - as, tp
Ben Webster - ts
Frank Rosolino - tb
Andre Previn, Jimmy Rowles - p
Barney Kessel - g
Leroy Vinnegar - b
Shelly Manne - d

Rec.: Los Angeles, June 11, July 22, October 7, 1957 and April 21, 1958.
 
Exact Audio Copy V0.99 prebeta 5 from 4. May 2009

EAC extraction logfile from 19. February 2011, 13:14

Benny Carter / Jazz Giant

Used drive : PHILIPS SPD2519T Adapter: 1 ID: 0

Read mode : SecureUtilize accurate stream : YesDefeat audio cache : YesMake use of C2 pointers : No

Read offset correction : 6Overread into Lead-In and Lead-Out : NoFill up missing offset samples with silence : YesDelete leading and trailing silent blocks : NoNull samples used in CRC calculations : YesUsed interface : Installed external ASPI interfaceGap handling : Appended to previous track

Used output format : User Defined EncoderSelected bitrate : 1024 kBit/sQuality : HighAdd ID3 tag : NoCommand line compressor : C:\Program Files\FLAC\flac.exeAdditional command line options : -8 -V -T "ARTIST=%a" -T "TITLE=%t" -T "ALBUM=%g" -T "DATE=%y" -T "TRACKNUMBER=%n" -T "GENRE=%m" -T "COMMENT=EAC FLAC -8" %s

TOC of the extracted CD

Track | Start | Length | Start sector | End sector --------------------------------------------------------- 1 | 0:00.00 | 7:51.03 | 0 | 35327 2 | 7:51.03 | 5:48.45 | 35328 | 61472 3 | 13:39.48 | 6:00.20 | 61473 | 88492 4 | 19:39.68 | 4:58.37 | 88493 | 110879 5 | 24:38.30 | 3:40.13 | 110880 | 127392 6 | 28:18.43 | 6:13.65 | 127393 | 155432 7 | 34:32.33 | 4:39.35 | 155433 | 176392

Track 1

Filename I:\S320-New Rip\Benny Carter - Jazz Giant (sacd Version)(1957)\01 - Old Fashioned Love.wav

Pre-gap length 0:00:02.00

Peak level 97.9 % Track quality 100.0 % Test CRC F2FA7DB6 Copy CRC F2FA7DB6 Accurately ripped (confidence 8) [7FD4A83F] Copy OK

Track 2

Filename I:\S320-New Rip\Benny Carter - Jazz Giant (sacd Version)(1957)\02 - I'm Coming Virginia.wav

Pre-gap length 0:00:02.45

Peak level 98.0 % Track quality 100.0 % Test CRC A206958D Copy CRC A206958D Accurately ripped (confidence 8) [DAED7B76] Copy OK

Track 3

Filename I:\S320-New Rip\Benny Carter - Jazz Giant (sacd Version)(1957)\03 - A Walkin' Thing.wav

Pre-gap length 0:00:02.18

Peak level 98.2 % Track quality 99.9 % Test CRC 61B064E7 Copy CRC 61B064E7 Accurately ripped (confidence 7) [1789D7B1] Copy OK

Track 4

Filename I:\S320-New Rip\Benny Carter - Jazz Giant (sacd Version)(1957)\04 - Blue Lou.wav

Pre-gap length 0:00:02.23

Peak level 97.8 % Track quality 100.0 % Test CRC 58D49D72 Copy CRC 58D49D72 Accurately ripped (confidence 8) [6F2D40D6] Copy OK

Track 5

Filename I:\S320-New Rip\Benny Carter - Jazz Giant (sacd Version)(1957)\05 - Ain't She Sweet.wav

Pre-gap length 0:00:02.10

Peak level 97.8 % Track quality 99.9 % Test CRC EC4AEA37 Copy CRC EC4AEA37 Accurately ripped (confidence 8) [509C6DBF] Copy OK

Track 6

Filename I:\S320-New Rip\Benny Carter - Jazz Giant (sacd Version)(1957)\06 - How Can You Lose.wav

Pre-gap length 0:00:02.53

Peak level 98.3 % Track quality 100.0 % Test CRC 247F8C9A Copy CRC 247F8C9A Accurately ripped (confidence 8) [5BB73F0F] Copy OK

Track 7

Filename I:\S320-New Rip\Benny Carter - Jazz Giant (sacd Version)(1957)\07 - Blues My Naughty Sweetie Gives To Me.wav

Pre-gap length 0:00:01.53

Peak level 98.2 % Track quality 100.0 % Test CRC 8D2A657F Copy CRC 8D2A657F Accurately ripped (confidence 8) [E2783B44] Copy OK

All tracks accurately ripped

No errors occurred

End of status report
 
REM GENRE JazzREM DATE 1957REM DISCID 48092F07REM COMMENT "ExactAudioCopy v0.99pb5"PERFORMER "Benny Carter"TITLE "Jazz Giant"FILE "01 - Old Fashioned Love.wav" WAVE TRACK 01 AUDIO TITLE "Old Fashioned Love" PERFORMER "Benny Carter" INDEX 01 00:00:00 TRACK 02 AUDIO TITLE "I'm Coming Virginia" PERFORMER "Benny Carter" INDEX 00 07:48:33FILE "02 - I'm Coming Virginia.wav" WAVE INDEX 01 00:00:00 TRACK 03 AUDIO TITLE "A Walkin' Thing" PERFORMER "Benny Carter" INDEX 00 05:46:27FILE "03 - A Walkin' Thing.wav" WAVE INDEX 01 00:00:00 TRACK 04 AUDIO TITLE "Blue Lou" PERFORMER "Benny Carter" INDEX 00 05:57:72FILE "04 - Blue Lou.wav" WAVE INDEX 01 00:00:00 TRACK 05 AUDIO TITLE "Ain't She Sweet" PERFORMER "Benny Carter" INDEX 00 04:56:27FILE "05 - Ain't She Sweet.wav" WAVE INDEX 01 00:00:00 TRACK 06 AUDIO TITLE "How Can You Lose" PERFORMER "Benny Carter" INDEX 00 03:37:35FILE "06 - How Can You Lose.wav" WAVE INDEX 01 00:00:00 TRACK 07 AUDIO TITLE "Blues My Naughty Sweetie Gives To Me" PERFORMER "Benny Carter" INDEX 00 06:12:12FILE "07 - Blues My Naughty Sweetie Gives To Me.wav" WAVE INDEX 01 00:00:00


Трекер:  [ 28-Янв-2012 20:19 ]

  

Скачать .torrent

Размер .torrent файла 6 KB


Размер: 247 MB
Хэш (hash) релиза: 336e0b3d9027f3018a315163684cd314803073ee

Еще никто не оставлял запись к записи скачать торрент Benny Carter — Jazz Giant . Будь первым!

!Обратная связь