Скачать через торрент музыку Jim Pepper Trio - Polar Bear Stomp бесплатно без регистрации torrent

Если у вас наблюдаются проблемы со скриншотами, переходом по ссылками, скачиванием торрентов - проблемы в блокировщике рекламы AdBlock. #хорошегоДня!


Статистика раздачи
Размер:  365 MB   |    Зарегистрирован:  5 лет 8 месяцев   |    .torrent скачан:  32 раза   |   
Раздают:  1  
   
Загрузка...
 
Автор Сообщение

Umakiro

avatar Umakiro


Jim Pepper Trio - Polar Bear Stomp
Жанр: Modern Jazz / Folk-Jazz / Native American
Год выпуска диска: 2003
Производитель диска: Universal (986 551-6)
Аудио кодек: FLAC
Тип рипа: image+.cue
Битрейт аудио: lossless
Продолжительность: 1:07:01
Треклист:
01. Polar Bear Stomp (7:41)
02. Greensleeves (10:43)
03. Ya Na Ho (3:31)
04. Squaw Song (8:02)
05. Ticket to M. S. (14:25)
06. Lakota Song (10:04)
07. Witchi Tai To (12:35)

Jim Pepper - sax, vocals, percussion
Wayne Darling - bass
Bill Elgart - drums

Recorded live at Jazz Cafe Vienna, May 3, 1991

За рип спасибо intothe
 
Exact Audio Copy V0.99 prebeta 4 from 23. January 2008

EAC extraction logfile from 27. July 2010, 9:08

Jim Pepper Trio / Polar Bear Stomp

Used drive : _NEC DVD_RW ND-3500AG Adapter: 0 ID: 0

Read mode : SecureUtilize accurate stream : YesDefeat audio cache : YesMake use of C2 pointers : No

Read offset correction : 48Overread into Lead-In and Lead-Out : NoFill up missing offset samples with silence : YesDelete leading and trailing silent blocks : NoNull samples used in CRC calculations : YesUsed interface : Native Win32 interface for Win NT & 2000

Used output format : User Defined EncoderSelected bitrate : 768 kBit/sQuality : HighAdd ID3 tag : NoCommand line compressor : C:\Program Files\Exact Audio Copy\FLAC\FLAC.EXEAdditional command line options : -6 -V -T "ARTIST=%a" -T "TITLE=%t" -T "ALBUM=%g" -T "DATE=%y" -T "TRACKNUMBER=%n" -T "GENRE=%m" -T "COMMENT=%e" %s -o %d

TOC of the extracted CD

Track | Start | Length | Start sector | End sector --------------------------------------------------------- 1 | 0:00.00 | 7:41.07 | 0 | 34581 2 | 7:41.07 | 10:43.06 | 34582 | 82812 3 | 18:24.13 | 3:31.00 | 82813 | 98637 4 | 21:55.13 | 8:01.71 | 98638 | 134783 5 | 29:57.09 | 14:24.60 | 134784 | 199643 6 | 44:21.69 | 10:03.73 | 199644 | 244941 7 | 54:25.67 | 12:35.02 | 244942 | 301568

Range status and errors

Selected range

Filename J:\eMusic\Rip\Jim Pepper Trio - Polar Bear Stomp.wav

Peak level 100.0 % Range quality 100.0 % Copy CRC 16662729 Copy OK

No errors occurred

AccurateRip summary

Track 1 not present in databaseTrack 2 not present in databaseTrack 3 not present in databaseTrack 4 not present in databaseTrack 5 not present in databaseTrack 6 not present in databaseTrack 7 not present in database

None of the tracks are present in the AccurateRip database

End of status report


Трекер:  [ 28-Янв-2012 18:30 ]

  

Скачать .torrent

Размер .torrent файла 15 KB


Размер: 365 MB
Хэш (hash) релиза: f75f8ea0feb637e1f15a065be179220448f2948a

Еще никто не оставлял запись к записи скачать торрент Jim Pepper Trio - Polar Bear Stomp . Будь первым!

!Обратная связь