Скачать через торрент музыку Chuck Wayne - Morning Mist бесплатно без регистрации torrent

Если у вас наблюдаются проблемы со скриншотами, переходом по ссылками, скачиванием торрентов - проблемы в блокировщике рекламы AdBlock. #хорошегоДня!


Статистика раздачи
Размер:  158 MB   |    Зарегистрирован:  5 лет 8 месяцев   |    .torrent скачан:  32 раза   |   
Раздают:  1  
   
Загрузка...
 
Автор Сообщение

Umakiro

avatar Umakiro


Chuck Wayne - Morning Mist
Жанр: Cool / Guitar
Год выпуска диска: 2003
Производитель диска: Prestige/OJC (OJCCD-1097-2 / P-7367)
Аудио кодек: APE
Тип рипа: image+.cue
Битрейт аудио: lossless
Продолжительность: 0:29:49
Треклист:
01. Goodbye (2:30)
02. See Saw (3:09)
03. Li'l Darlin' (4:08)
04. I'll Get Along (2:31)
05. Things Ain't What They Used To Be (3:16)
06. Shalimar (3:31)
07. Someone To Watch Over Me (2:47)
08. The Song Is You (2:57)
09. Alone At Last (2:10)
10. Lovely (2:50)

Chuck Wayne - guitar, banjo
Joe Williams - bass
Ronny Bedford - drums

Recorded at Van Gelder Studios, Englewood Cliffs, NJ; December 8, 1964

За релиз спасибо jack335
 
Exact Audio Copy V0.99 prebeta 4 from 23. January 2008

EAC extraction logfile from 27. August 2008, 22:15

Chuck Wayne / Morning Mist

Used drive : ASUS DRW-1814BL Adapter: 4 ID: 0

Read mode : SecureUtilize accurate stream : YesDefeat audio cache : YesMake use of C2 pointers : No

Read offset correction : 6Overread into Lead-In and Lead-Out : NoFill up missing offset samples with silence : YesDelete leading and trailing silent blocks : NoNull samples used in CRC calculations : NoUsed interface : Native Win32 interface for Win NT & 2000

Used output format : Monkey's Audio Lossless EncoderSelected bitrate : Normal Lossless CompressionQuality : HighAdd ID3 tag : YesCommand line compressor : C:\Program Files\Exact Audio Copy\MAC.exe

TOC of the extracted CD

Track | Start | Length | Start sector | End sector --------------------------------------------------------- 1 | 0:00.00 | 2:30.03 | 0 | 11252 2 | 2:30.03 | 3:09.37 | 11253 | 25464 3 | 5:39.40 | 4:07.68 | 25465 | 44057 4 | 9:47.33 | 2:30.42 | 44058 | 55349 5 | 12:18.00 | 3:15.55 | 55350 | 70029 6 | 15:33.55 | 3:31.18 | 70030 | 85872 7 | 19:04.73 | 2:46.45 | 85873 | 98367 8 | 21:51.43 | 2:57.35 | 98368 | 111677 9 | 24:49.03 | 2:09.52 | 111678 | 121404 10 | 26:58.55 | 2:50.13 | 121405 | 134167

Range status and errors

Selected range

Filename D:\jack\Chuck Wayne - Morning Mist (1964)\Chuck Wayne - Morning Mist.wav

Peak level 100.0 % Range quality 100.0 % Copy CRC 0E39511F Copy OK

No errors occurred

End of status report


Трекер:  [ 28-Янв-2012 18:29 ]

  

Скачать .torrent

Размер .torrent файла 13 KB


Размер: 158 MB
Хэш (hash) релиза: b48082b1bbf1688e675ddc2c01c7b2f8b874fac5

Еще никто не оставлял запись к записи скачать торрент Chuck Wayne - Morning Mist . Будь первым!

!Обратная связь