Скачать через торрент музыку Kenny Dorham with Sonny Rollins - Jazz Contrasts бесплатно без регистрации torrent

Если у вас наблюдаются проблемы со скриншотами, переходом по ссылками, скачиванием торрентов - проблемы в блокировщике рекламы AdBlock. #хорошегоДня!


Статистика раздачи
Размер:  219 MB   |    Зарегистрирован:  5 лет 8 месяцев   |    .torrent скачан:  26 раз   |   
Раздают:  1  
   
Загрузка...
 
Автор Сообщение

Umakiro

avatar Umakiro


Kenny Dorham with Sonny Rollins - Jazz Contrasts
Жанр: Hard Bop
Год выпуска диска: 2007
Производитель диска: Reiverside/Concord (RCD-30132-2)
Аудио кодек: FLAC
Тип рипа: tracks+.cue
Битрейт аудио: lossless
Продолжительность: 0:41:05
Треклист:
01. Falling in Love With Love (9:14)
02. I'll Remember April (12:07)
03. Larue (4:31)
04. My Old Flame (5:26)
05. But Beautiful (2:45)
06. La Villa (7:02)

Kenny Dorham - trumpet
Sonny Rollins - tenor sax [except #3, 5]
Hank Jones - piano
Oscar Pettiford - bass
Max Roach - drums
Betty Glamman - harp [#3-5 only]

Recorded at Reeves Sound Studio, New York City; May 21 and 27, 1957

За рип спасибо ruskaval
 
Exact Audio Copy V0.99 prebeta 5 from 4. May 2009

EAC extraction logfile from 19. July 2010, 16:56

Kenny Dorham / Jazz Contrasts

Used drive : TSSTcorpCD/DVDW TS-H552L Adapter: 3 ID: 0

Read mode : SecureUtilize accurate stream : YesDefeat audio cache : YesMake use of C2 pointers : No

Read offset correction : 6Overread into Lead-In and Lead-Out : NoFill up missing offset samples with silence : YesDelete leading and trailing silent blocks : NoNull samples used in CRC calculations : YesUsed interface : Native Win32 interface for Win NT & 2000Gap handling : Appended to previous track

Used output format : User Defined EncoderSelected bitrate : 1024 kBit/sQuality : HighAdd ID3 tag : NoCommand line compressor : C:\Program Files\FLAC\flac.exeAdditional command line options : -6 -V -T "ARTIST=%a" -T "TITLE=%t" -T "ALBUM=%g" -T "DATE=%y" -T "TRACKNUMBER=%n" -T "GENRE=%m" -T "COMMENT=EAC FLAC -6" %s

TOC of the extracted CD

Track | Start | Length | Start sector | End sector --------------------------------------------------------- 1 | 0:00.00 | 9:14.36 | 0 | 41585 2 | 9:14.36 | 12:07.01 | 41586 | 96111 3 | 21:21.37 | 4:31.25 | 96112 | 116461 4 | 25:52.62 | 5:25.61 | 116462 | 140897 5 | 31:18.48 | 2:44.63 | 140898 | 153260 6 | 34:03.36 | 7:01.60 | 153261 | 184895

Track 1

Filename C:\ruskaval\Kenny Dorham - Jazz Contrasts (1957) {2007 Keepnews Collection}\01 - Falling in Love With Love.wav

Pre-gap length 0:00:02.00

Peak level 71.3 % Track quality 100.0 % Test CRC 98D691A6 Copy CRC 98D691A6 Accurately ripped (confidence 7) [B005365A] Copy OK

Track 2

Filename C:\ruskaval\Kenny Dorham - Jazz Contrasts (1957) {2007 Keepnews Collection}\02 - I'll Remember April.wav

Peak level 100.0 % Track quality 100.0 % Test CRC B679CB9B Copy CRC B679CB9B Accurately ripped (confidence 7) [8E558B2C] Copy OK

Track 3

Filename C:\ruskaval\Kenny Dorham - Jazz Contrasts (1957) {2007 Keepnews Collection}\03 - Larue.wav

Peak level 100.0 % Track quality 100.0 % Test CRC E84B8F02 Copy CRC E84B8F02 Accurately ripped (confidence 7) [F8FF1DAC] Copy OK

Track 4

Filename C:\ruskaval\Kenny Dorham - Jazz Contrasts (1957) {2007 Keepnews Collection}\04 - My Old Flame.wav

Peak level 91.5 % Track quality 100.0 % Test CRC 49FA0997 Copy CRC 49FA0997 Accurately ripped (confidence 7) [0C80ADC0] Copy OK

Track 5

Filename C:\ruskaval\Kenny Dorham - Jazz Contrasts (1957) {2007 Keepnews Collection}\05 - But Beautiful.wav

Peak level 74.6 % Track quality 100.0 % Test CRC FC45A44A Copy CRC FC45A44A Accurately ripped (confidence 7) [22B06C1A] Copy OK

Track 6

Filename C:\ruskaval\Kenny Dorham - Jazz Contrasts (1957) {2007 Keepnews Collection}\06 - La Villa.wav

Peak level 100.0 % Track quality 100.0 % Test CRC 40E9F5D2 Copy CRC 40E9F5D2 Accurately ripped (confidence 7) [18C9141A] Copy OK

All tracks accurately ripped

No errors occurred

End of status report
 
REM GENRE JazzREM DATE 1957REM DISCID 4B09A106REM COMMENT "ExactAudioCopy v0.99pb5"PERFORMER "Kenny Dorham"TITLE "Jazz Contrasts"FILE "01 - Falling in Love With Love.wav" WAVE TRACK 01 AUDIO TITLE "Falling in Love With Love" PERFORMER "Kenny Dorham" INDEX 01 00:00:00FILE "02 - I'll Remember April.wav" WAVE TRACK 02 AUDIO TITLE "I'll Remember April" PERFORMER "Kenny Dorham" INDEX 01 00:00:00FILE "03 - Larue.wav" WAVE TRACK 03 AUDIO TITLE "Larue" PERFORMER "Kenny Dorham" INDEX 01 00:00:00FILE "04 - My Old Flame.wav" WAVE TRACK 04 AUDIO TITLE "My Old Flame" PERFORMER "Kenny Dorham" INDEX 01 00:00:00FILE "05 - But Beautiful.wav" WAVE TRACK 05 AUDIO TITLE "But Beautiful" PERFORMER "Kenny Dorham" INDEX 01 00:00:00FILE "06 - La Villa.wav" WAVE TRACK 06 AUDIO TITLE "La Villa" PERFORMER "Kenny Dorham" INDEX 01 00:00:00


Трекер:  [ 28-Янв-2012 18:29 ]

  

Скачать .torrent

Размер .torrent файла 18 KB


Размер: 219 MB
Хэш (hash) релиза: 852a75f7825be0abb19ea457641e5013078d906b

Еще никто не оставлял запись к записи скачать торрент Kenny Dorham with Sonny Rollins - Jazz Contrasts . Будь первым!

!Обратная связь