Скачать через торрент музыку Johnny Lytle - Nice and Easy: The Souldful Vibes Of Johnny Lytle бесплатно без регистрации torrent

Если у вас наблюдаются проблемы со скриншотами, переходом по ссылками, скачиванием торрентов - проблемы в блокировщике рекламы AdBlock. #хорошегоДня!


Статистика раздачи
Размер:  249 MB   |    Зарегистрирован:  5 лет 8 месяцев   |    .torrent скачан:  21 раз   |   
Раздают:  1  
   
Загрузка...
 
Автор Сообщение

Umakiro

avatar Umakiro


Johnny Lytle - Nice and Easy: The Souldful Vibes Of Johnny Lytle
Жанр: Hard Bop / Vibes
Год выпуска диска: 1999
Производитель диска: Jazzland/OJC (OJCCD-1013-2 / JLP-967)
Аудио кодек: FLAC
Тип рипа: tracks+.cue
Битрейт аудио: lossless
Продолжительность: 0:40:23
Треклист:
01. But Not For Me (5:34)
02. Soul Time (4:37)
03. That's All (5:29)
04. 322-Wow! (4:12)
05. Coroner's Blues (7:26)
06. Nice And Easy (8:23)
07. Old Folks (4:43)

Johnny Lytle - vibes
Johnny Griffin - tenor sax [except #7]
Bobby Timons - piano
Sam Jones - bass
Louis Hayes - drums

Recorded at Plaza Sound Studios, New York City; January 29, 1962

Автор рипа meszrum
 
EAC extraction logfile from 25. September 2008, 17:13 for CDJohnny Lytle / Nice and Easy: The Soulful Vibes Of Johnny Lytle

Used drive : ASUS DRW-1608P2S Adapter: 0 ID: 3Read mode : Secure with NO C2, accurate stream, disable cacheRead offset correction : 48Overread into Lead-In and Lead-Out : Yes

Used output format : C:\Program Files\Exact Audio Copy\Plugins\flac.exe (User Defined Encoder) 320 kBit/s Additional command line options : -V -8 -T "artist=%a" -T "title=%t" -T "album=%g" -T "date=%y" -T "tracknumber=%n" -T "genre=%m" -T "comment=EAC 095pb5 / Flac 1.1.2 -8" %s

Other options : Fill up missing offset samples with silence : Yes Delete leading and trailing silent blocks : No Native Win32 interface for Win NT & 2000

Track 1 Filename D:\Audio\lossless\Johnny Lytle - Nice And Easy The Souldful Vibes Of Johnny Lytle (1962) [FLAC]\01 - But Not For Me.wav

Pre-gap length 0:00:02.00

Peak level 87.6 % Track quality 100.0 % Test CRC 1C58CCA0 Copy CRC 1C58CCA0 Copy OK

Track 2 Filename D:\Audio\lossless\Johnny Lytle - Nice And Easy The Souldful Vibes Of Johnny Lytle (1962) [FLAC]\02 - Soul Time.wav

Pre-gap length 0:00:01.68

Peak level 85.5 % Track quality 99.9 % Test CRC 6114BD66 Copy CRC 6114BD66 Copy OK

Track 3 Filename D:\Audio\lossless\Johnny Lytle - Nice And Easy The Souldful Vibes Of Johnny Lytle (1962) [FLAC]\03 - That's All.wav

Pre-gap length 0:00:02.00

Peak level 80.8 % Track quality 100.0 % Test CRC 1CA471BF Copy CRC 1CA471BF Copy OK

Track 4 Filename D:\Audio\lossless\Johnny Lytle - Nice And Easy The Souldful Vibes Of Johnny Lytle (1962) [FLAC]\04 - 322-Wow!.wav

Pre-gap length 0:00:01.23

Peak level 83.9 % Track quality 100.0 % Test CRC 6F0095FC Copy CRC 6F0095FC Copy OK

Track 5 Filename D:\Audio\lossless\Johnny Lytle - Nice And Easy The Souldful Vibes Of Johnny Lytle (1962) [FLAC]\05 - Coroner's Blues.wav

Pre-gap length 0:00:02.52

Peak level 99.6 % Track quality 100.0 % Test CRC FC11BC8A Copy CRC FC11BC8A Copy OK

Track 6 Filename D:\Audio\lossless\Johnny Lytle - Nice And Easy The Souldful Vibes Of Johnny Lytle (1962) [FLAC]\06 - Nice And Easy.wav

Pre-gap length 0:00:01.54

Peak level 100.0 % Track quality 100.0 % Test CRC 43084F76 Copy CRC 43084F76 Copy OK

Track 7 Filename D:\Audio\lossless\Johnny Lytle - Nice And Easy The Souldful Vibes Of Johnny Lytle (1962) [FLAC]\07 - Old Folks.wav

Pre-gap length 0:00:02.05

Peak level 100.0 % Track quality 100.0 % Test CRC B21EDA4E Copy CRC B21EDA4E Copy OK

No errors occured

End of status report
 
PERFORMER "Johnny Lytle"TITLE "Nice and Easy: The Soulful Vibes Of Johnny Lytle"FILE "01 - But Not For Me.wav" WAVE TRACK 01 AUDIO TITLE "But Not For Me" PERFORMER "Johnny Lytle" INDEX 01 00:00:00 TRACK 02 AUDIO TITLE "Soul Time" PERFORMER "Johnny Lytle" INDEX 00 05:31:47FILE "02 - Soul Time.wav" WAVE INDEX 01 00:00:00 TRACK 03 AUDIO TITLE "That's All" PERFORMER "Johnny Lytle" INDEX 00 04:34:45FILE "03 - That's All.wav" WAVE INDEX 01 00:00:00 TRACK 04 AUDIO TITLE "322-Wow!" PERFORMER "Johnny Lytle" INDEX 00 05:27:22FILE "04 - 322-Wow!.wav" WAVE INDEX 01 00:00:00 TRACK 05 AUDIO TITLE "Coroner's Blues" PERFORMER "Johnny Lytle" INDEX 00 04:09:10FILE "05 - Coroner's Blues.wav" WAVE INDEX 01 00:00:00 TRACK 06 AUDIO TITLE "Nice And Easy" PERFORMER "Johnny Lytle" INDEX 00 07:24:33FILE "06 - Nice And Easy.wav" WAVE INDEX 01 00:00:00 TRACK 07 AUDIO TITLE "Old Folks" PERFORMER "Johnny Lytle" INDEX 00 08:20:63FILE "07 - Old Folks.wav" WAVE INDEX 01 00:00:00


Трекер:  [ 28-Янв-2012 18:27 ]

  

Скачать .torrent

Размер .torrent файла 21 KB


Размер: 249 MB
Хэш (hash) релиза: dee9b66c401181bf2ae26af89bb5ce7024a01b3d

Еще никто не оставлял запись к записи скачать торрент Johnny Lytle - Nice and Easy: The Souldful Vibes Of Johnny Lytle . Будь первым!

!Обратная связь