Скачать через торрент музыку Harold Lopez-Nussa - Sobre El Atelier - 2007, FLAC бесплатно без регистрации torrent

Если у вас наблюдаются проблемы со скриншотами, переходом по ссылками, скачиванием торрентов - проблемы в блокировщике рекламы AdBlock. #хорошегоДня!


Статистика раздачи
Размер:  177 MB   |    Зарегистрирован:  5 лет 8 месяцев   |    .torrent скачан:  24 раза   |   
Раздают:  1  
   
Загрузка...
 
Автор Сообщение

Umakiro

avatar Umakiro


Harold López-Nussa - Sobre El Atelier
Жанр: Modern Jazz / Cuban Jazz / Piano / Solo
Год выпуска диска: 2007
Производитель диска: Cristal (CD-124)
Аудио кодек: FLAC
Тип рипа: tracks+.cue
Битрейт аудио: lossless
Продолжительность: 0:35:36
Треклист:
01. Timbeando (4:32)
02. Levitando (4:21)
03. Mi son cerra'o (3:59)
04. Sobre el Atelier (3:40)
05. La Jungla (2:50)
07. Footprints (3:53)
08. E'cha (4:28)
09. Three Views Of A Secret (4:56)
10. Mambo influenciado (2:58)

Harold López-Nussa - piano

As laureate of the "Montreux Jazz Solo Piano Competition in 2005", Harold had been offered this recording "Sobre el Ateiler" which took place in 2006 in the studio "Balik Farm"...

За рип спасибо pastafaricubensis
 
Exact Audio Copy V0.99 prebeta 4 from 23. January 2008

EAC extraction logfile from 4. March 2010, 15:31

Harold Lуpez-Nussa / Sobre El Atelier

Used drive : TSSTcorpCDDVDW TS-H653N Adapter: 2 ID: 2

Read mode : SecureUtilize accurate stream : YesDefeat audio cache : YesMake use of C2 pointers : No

Read offset correction : 6Overread into Lead-In and Lead-Out : NoFill up missing offset samples with silence : YesDelete leading and trailing silent blocks : NoNull samples used in CRC calculations : YesUsed interface : Native Win32 interface for Win NT & 2000Gap handling : Appended to previous track

Used output format : User Defined EncoderSelected bitrate : 1024 kBit/sQuality : HighAdd ID3 tag : NoCommand line compressor : C:\Program Files\FLAC -\flac.exeAdditional command line options : -5 -V -T "artist=%a" -T "title=%t" -T "album=%g" -T "date=%y" -T "tracknumber=%n" -T "genre=%m" -T comment="shared by pastafari cubensis" %s

TOC of the extracted CD

Track | Start | Length | Start sector | End sector --------------------------------------------------------- 1 | 0:00.00 | 4:32.03 | 0 | 20402 2 | 4:32.03 | 4:20.68 | 20403 | 39970 3 | 8:52.71 | 3:59.01 | 39971 | 57896 4 | 12:51.72 | 3:40.13 | 57897 | 74409 5 | 16:32.10 | 2:50.01 | 74410 | 87160 6 | 19:22.11 | 3:11.23 | 87161 | 101508 7 | 22:33.34 | 3:52.48 | 101509 | 118956 8 | 26:26.07 | 4:27.53 | 118957 | 139034 9 | 30:53.60 | 4:56.12 | 139035 | 161246 10 | 35:49.72 | 2:57.53 | 161247 | 174574 11 | 38:47.50 | 2:13.68 | 174575 | 184617

Track 1

Filename C:\CD_buffer\Harold Lуpez-Nussa - 2007 - Sobre El Atelier [FLAC]\01- Timbeando.wav

Pre-gap length 0:00:02.00

Peak level 100.0 % Track quality 100.0 % Test CRC 50385077 Copy CRC 50385077 Copy OK

Track 2

Filename C:\CD_buffer\Harold Lуpez-Nussa - 2007 - Sobre El Atelier [FLAC]\02- Levitando.wav

Peak level 85.3 % Track quality 100.0 % Test CRC DAF00AFD Copy CRC DAF00AFD Copy OK

Track 3

Filename C:\CD_buffer\Harold Lуpez-Nussa - 2007 - Sobre El Atelier [FLAC]\03- Mi son cerra'o.wav

Peak level 91.0 % Track quality 100.0 % Test CRC A66AEB3B Copy CRC A66AEB3B Copy OK

Track 4

Filename C:\CD_buffer\Harold Lуpez-Nussa - 2007 - Sobre El Atelier [FLAC]\04- Sobre el Atelier.wav

Peak level 89.3 % Track quality 99.9 % Test CRC BB37FD4B Copy CRC BB37FD4B Copy OK

Track 5

Filename C:\CD_buffer\Harold Lуpez-Nussa - 2007 - Sobre El Atelier [FLAC]\05- La Jungla.wav

Peak level 100.0 % Track quality 99.9 % Test CRC 6CC231C6 Copy CRC 6CC231C6 Copy OK

Track 6

Filename C:\CD_buffer\Harold Lуpez-Nussa - 2007 - Sobre El Atelier [FLAC]\06- Bruma en otoсo.wav

Peak level 95.1 % Track quality 100.0 % Test CRC 6FA4D3F3 Copy CRC 6FA4D3F3 Copy OK

Track 7

Filename C:\CD_buffer\Harold Lуpez-Nussa - 2007 - Sobre El Atelier [FLAC]\07- Footprints.wav

Peak level 85.3 % Track quality 100.0 % Test CRC 5038444B Copy CRC 5038444B Copy OK

Track 8

Filename C:\CD_buffer\Harold Lуpez-Nussa - 2007 - Sobre El Atelier [FLAC]\08- E'cha.wav

Peak level 100.0 % Track quality 100.0 % Test CRC AACC291B Copy CRC AACC291B Copy OK

Track 9

Filename C:\CD_buffer\Harold Lуpez-Nussa - 2007 - Sobre El Atelier [FLAC]\09- Three Views Of A Secret.wav

Peak level 80.1 % Track quality 100.0 % Test CRC C5AF32EC Copy CRC C5AF32EC Copy OK

Track 10

Filename C:\CD_buffer\Harold Lуpez-Nussa - 2007 - Sobre El Atelier [FLAC]\10- Mambo influenciado.wav

Peak level 100.0 % Track quality 100.0 % Test CRC BA8AF4B7 Copy CRC BA8AF4B7 Copy OK

Track 11

Filename C:\CD_buffer\Harold Lуpez-Nussa - 2007 - Sobre El Atelier [FLAC]\11- Danza de los сaсigos.wav

Peak level 100.0 % Track quality 100.0 % Test CRC BCF9795B Copy CRC BCF9795B Copy OK

No errors occurred

End of status report
 
REM GENRE Latin.JazzREM DATE 2007REM DISCID 9E099D0BREM COMMENT "ExactAudioCopy v0.99pb4"PERFORMER "Harold Lуpez-Nussa"TITLE "Sobre El Atelier"FILE "Harold Lуpez-Nussa - 2007 - Sobre El Atelier [FLAC]\01- Timbeando.wav" WAVE TRACK 01 AUDIO TITLE "Timbeando" PERFORMER "Harold Lуpez-Nussa" INDEX 01 00:00:00FILE "Harold Lуpez-Nussa - 2007 - Sobre El Atelier [FLAC]\02- Levitando.wav" WAVE TRACK 02 AUDIO TITLE "Levitando" PERFORMER "Harold Lуpez-Nussa" INDEX 01 00:00:00FILE "Harold Lуpez-Nussa - 2007 - Sobre El Atelier [FLAC]\03- Mi son cerra'o.wav" WAVE TRACK 03 AUDIO TITLE "Mi son cerra'o" PERFORMER "Harold Lуpez-Nussa" INDEX 01 00:00:00FILE "Harold Lуpez-Nussa - 2007 - Sobre El Atelier [FLAC]\04- Sobre el Atelier.wav" WAVE TRACK 04 AUDIO TITLE "Sobre el Atelier" PERFORMER "Harold Lуpez-Nussa" INDEX 01 00:00:00FILE "Harold Lуpez-Nussa - 2007 - Sobre El Atelier [FLAC]\05- La Jungla.wav" WAVE TRACK 05 AUDIO TITLE "La Jungla" PERFORMER "Harold Lуpez-Nussa" INDEX 01 00:00:00FILE "Harold Lуpez-Nussa - 2007 - Sobre El Atelier [FLAC]\06- Bruma en otoсo.wav" WAVE TRACK 06 AUDIO TITLE "Bruma en otoсo" PERFORMER "Harold Lуpez-Nussa" INDEX 01 00:00:00FILE "Harold Lуpez-Nussa - 2007 - Sobre El Atelier [FLAC]\07- Footprints.wav" WAVE TRACK 07 AUDIO TITLE "Footprints" PERFORMER "Harold Lуpez-Nussa" INDEX 01 00:00:00FILE "Harold Lуpez-Nussa - 2007 - Sobre El Atelier [FLAC]\08- E'cha.wav" WAVE TRACK 08 AUDIO TITLE "E'cha" PERFORMER "Harold Lуpez-Nussa" INDEX 01 00:00:00FILE "Harold Lуpez-Nussa - 2007 - Sobre El Atelier [FLAC]\09- Three Views Of A Secret.wav" WAVE TRACK 09 AUDIO TITLE "Three Views Of A Secret" PERFORMER "Harold Lуpez-Nussa" INDEX 01 00:00:00FILE "Harold Lуpez-Nussa - 2007 - Sobre El Atelier [FLAC]\10- Mambo influenciado.wav" WAVE TRACK 10 AUDIO TITLE "Mambo influenciado" PERFORMER "Harold Lуpez-Nussa" INDEX 01 00:00:00FILE "Harold Lуpez-Nussa - 2007 - Sobre El Atelier [FLAC]\11- Danza de los сaсigos.wav" WAVE TRACK 11 AUDIO TITLE "Danza de los сaсigos" PERFORMER "Harold Lуpez-Nussa" INDEX 01 00:00:00


Трекер:  [ 28-Янв-2012 18:27 ]

  

Скачать .torrent

Размер .torrent файла 15 KB


Размер: 177 MB
Хэш (hash) релиза: d6ed139403a141a412e4840ce483dd5a0bce447d

Еще никто не оставлял запись к записи скачать торрент Harold Lopez-Nussa - Sobre El Atelier - 2007, FLAC . Будь первым!

!Обратная связь