Скачать через торрент музыку Harold Lopez-Nussa - Canciones - 2007, FLAC бесплатно без регистрации torrent

Если у вас наблюдаются проблемы со скриншотами, переходом по ссылками, скачиванием торрентов - проблемы в блокировщике рекламы AdBlock. #хорошегоДня!


Статистика раздачи
Размер:  243 MB   |    Зарегистрирован:  5 лет 8 месяцев   |    .torrent скачан:  23 раза   |   
Раздают:  1  
   
Загрузка...
 
Автор Сообщение

Umakiro

avatar Umakiro


Harold López-Nussa - Canciones
Жанр: Modern Jazz / Cuban Jazz / Piano
Год выпуска диска: 2007
Производитель диска: Cinquillo Colibri (CD 103)
Аудио кодек: FLAC
Тип рипа: tracks+.cue
Битрейт аудио: lossless
Продолжительность: 0:30:07
Треклист:
01. A felicidade (4:51)
02. Olvido (3:16)
03. Para vivir (4:41)
05. Bailando suiza (4:51)
07. 11 y 6 (3:31)
08. Contigo en la distancia (5:14)
09. Causas y azares (3:44)

Harold López-Nussa - piano, vibraphone
Ruy Andrian López-Nussa - drums
Nestor G. del Prado Fernandez - electric bass
Yandy Martinez Gonzalez - double bass
Mayquel Gonzalez Gonzalez - trumpet
Carlos Miyares - tenor sax
Roberto martinez - alto, tenor saxes
Mauricio Gutierrez - percussion
Edgar Martinez Ochoa - congas
Heikel Fabian - trombone
Ernesto Vega - clarinet, bass clarinet
William E. Roblejo Espinosa - 1st violin
Susan Santana Selis - 2nd violin
Marta Salgado - viola
Lester I. Monier Serrano - cello

Recorded in studio "Abdala", 2006

За рип спасибо pastafaricubensis
 
Exact Audio Copy V0.99 prebeta 4 from 23. January 2008

EAC extraction logfile from 17. January 2010, 17:55

Harold Lуpez-Nussa / Canciones

Used drive : TSSTcorpCDDVDW TS-H653N Adapter: 2 ID: 2

Read mode : SecureUtilize accurate stream : YesDefeat audio cache : YesMake use of C2 pointers : No

Read offset correction : 6Overread into Lead-In and Lead-Out : NoFill up missing offset samples with silence : YesDelete leading and trailing silent blocks : NoNull samples used in CRC calculations : YesUsed interface : Native Win32 interface for Win NT & 2000Gap handling : Appended to previous track

Used output format : User Defined EncoderSelected bitrate : 1024 kBit/sQuality : HighAdd ID3 tag : NoCommand line compressor : C:\Program Files\FLAC -\flac.exeAdditional command line options : -5 -V -T "artist=%a" -T "title=%t" -T "album=%g" -T "date=%y" -T "tracknumber=%n" -T "genre=%m" -T comment="shared by pastafari cubensis" %s

TOC of the extracted CD

Track | Start | Length | Start sector | End sector --------------------------------------------------------- 1 | 0:00.00 | 4:50.61 | 0 | 21810 2 | 4:50.61 | 3:16.24 | 21811 | 36534 3 | 8:07.10 | 4:41.17 | 36535 | 57626 4 | 12:48.27 | 3:14.30 | 57627 | 72206 5 | 16:02.57 | 4:50.55 | 72207 | 94011 6 | 20:53.37 | 5:12.12 | 94012 | 117423 7 | 26:05.49 | 3:30.45 | 117424 | 133218 8 | 29:36.19 | 5:13.54 | 133219 | 156747 9 | 34:49.73 | 3:43.64 | 156748 | 173536 10 | 38:33.62 | 4:57.27 | 173537 | 195838

Track 1

Filename C:\CD_buffer\Harold Lуpez-Nussa - 2007 - Canciones [FLAC]\01- A felicidade.wav

Pre-gap length 0:00:02.00

Peak level 93.3 % Track quality 100.0 % Test CRC A38B62B1 Copy CRC A38B62B1 Copy OK

Track 2

Filename C:\CD_buffer\Harold Lуpez-Nussa - 2007 - Canciones [FLAC]\02- Olvido.wav

Peak level 100.0 % Track quality 100.0 % Test CRC 1D551C41 Copy CRC 1D551C41 Copy OK

Track 3

Filename C:\CD_buffer\Harold Lуpez-Nussa - 2007 - Canciones [FLAC]\03- Para vivir.wav

Peak level 96.1 % Track quality 99.9 % Test CRC A314D179 Copy CRC A314D179 Copy OK

Track 4

Filename C:\CD_buffer\Harold Lуpez-Nussa - 2007 - Canciones [FLAC]\04- Para Bбrbara.wav

Peak level 82.3 % Track quality 100.0 % Test CRC E4C49FDB Copy CRC E4C49FDB Copy OK

Track 5

Filename C:\CD_buffer\Harold Lуpez-Nussa - 2007 - Canciones [FLAC]\05- Bailando suiza.wav

Peak level 91.7 % Track quality 100.0 % Test CRC 934D0243 Copy CRC 934D0243 Copy OK

Track 6

Filename C:\CD_buffer\Harold Lуpez-Nussa - 2007 - Canciones [FLAC]\06- Detrбs del cristal.wav

Peak level 100.0 % Track quality 99.9 % Test CRC 7E571B42 Copy CRC 7E571B42 Copy OK

Track 7

Filename C:\CD_buffer\Harold Lуpez-Nussa - 2007 - Canciones [FLAC]\07- 11 y 6.wav

Peak level 95.4 % Track quality 100.0 % Test CRC 3410B3C5 Copy CRC 3410B3C5 Copy OK

Track 8

Filename C:\CD_buffer\Harold Lуpez-Nussa - 2007 - Canciones [FLAC]\08- Contigo en la distancia.wav

Peak level 94.0 % Track quality 100.0 % Test CRC FCF4AA6A Copy CRC FCF4AA6A Copy OK

Track 9

Filename C:\CD_buffer\Harold Lуpez-Nussa - 2007 - Canciones [FLAC]\09- Causas y azares.wav

Peak level 94.0 % Track quality 100.0 % Test CRC 24D7B176 Copy CRC 24D7B176 Copy OK

Track 10

Filename C:\CD_buffer\Harold Lуpez-Nussa - 2007 - Canciones [FLAC]\10- Los muсecos.wav

Pre-gap length 0:00:05.00

Peak level 95.6 % Track quality 100.0 % Test CRC 422DCFDF Copy CRC 422DCFDF Copy OK

No errors occurred

End of status report
 
REM GENRE JazzREM DATE 2007REM DISCID 930A330AREM COMMENT "ExactAudioCopy v0.99pb4"PERFORMER "Harold Lуpez-Nussa"TITLE "Canciones"FILE "Harold Lуpez-Nussa - 2007 - Canciones [FLAC]\01- A felicidade.wav" WAVE TRACK 01 AUDIO TITLE "A felicidade" PERFORMER "Harold Lуpez-Nussa" INDEX 01 00:00:00FILE "Harold Lуpez-Nussa - 2007 - Canciones [FLAC]\02- Olvido.wav" WAVE TRACK 02 AUDIO TITLE "Olvido" PERFORMER "Harold Lуpez-Nussa" INDEX 01 00:00:00FILE "Harold Lуpez-Nussa - 2007 - Canciones [FLAC]\03- Para vivir.wav" WAVE TRACK 03 AUDIO TITLE "Para vivir" PERFORMER "Harold Lуpez-Nussa" INDEX 01 00:00:00FILE "Harold Lуpez-Nussa - 2007 - Canciones [FLAC]\04- Para Bбrbara.wav" WAVE TRACK 04 AUDIO TITLE "Para Bбrbara" PERFORMER "Harold Lуpez-Nussa" INDEX 01 00:00:00FILE "Harold Lуpez-Nussa - 2007 - Canciones [FLAC]\05- Bailando suiza.wav" WAVE TRACK 05 AUDIO TITLE "Bailando suiza" PERFORMER "Harold Lуpez-Nussa" INDEX 01 00:00:00FILE "Harold Lуpez-Nussa - 2007 - Canciones [FLAC]\06- Detrбs del cristal.wav" WAVE TRACK 06 AUDIO TITLE "Detrбs del cristal" PERFORMER "Harold Lуpez-Nussa" INDEX 01 00:00:00FILE "Harold Lуpez-Nussa - 2007 - Canciones [FLAC]\07- 11 y 6.wav" WAVE TRACK 07 AUDIO TITLE "11 y 6" PERFORMER "Harold Lуpez-Nussa" INDEX 01 00:00:00FILE "Harold Lуpez-Nussa - 2007 - Canciones [FLAC]\08- Contigo en la distancia.wav" WAVE TRACK 08 AUDIO TITLE "Contigo en la distancia" PERFORMER "Harold Lуpez-Nussa" INDEX 01 00:00:00FILE "Harold Lуpez-Nussa - 2007 - Canciones [FLAC]\09- Causas y azares.wav" WAVE TRACK 09 AUDIO TITLE "Causas y azares" PERFORMER "Harold Lуpez-Nussa" INDEX 01 00:00:00 TRACK 10 AUDIO TITLE "Los muсecos" PERFORMER "Harold Lуpez-Nussa" INDEX 00 03:38:64FILE "Harold Lуpez-Nussa - 2007 - Canciones [FLAC]\10- Los muсecos.wav" WAVE INDEX 01 00:00:00


Трекер:  [ 28-Янв-2012 18:26 ]

  

Скачать .torrent

Размер .torrent файла 20 KB


Размер: 243 MB
Хэш (hash) релиза: 1a7af7b7dac88d9bcc6d4ce304a9e34e87e6377e

Еще никто не оставлял запись к записи скачать торрент Harold Lopez-Nussa - Canciones - 2007, FLAC . Будь первым!

!Обратная связь