Скачать через торрент музыку Ernan Lopez-Nussa - From Havana To Rio - 2000, FLAC бесплатно без регистрации torrent

Если у вас наблюдаются проблемы со скриншотами, переходом по ссылками, скачиванием торрентов - проблемы в блокировщике рекламы AdBlock. #хорошегоДня!


Статистика раздачи
Размер:  266 MB   |    Зарегистрирован:  5 лет 8 месяцев   |    .torrent скачан:  26 раз   |   
Раздают:  1  
   
Загрузка...
 
Автор Сообщение

Umakiro

avatar Umakiro


Ernán López-Nussa - From Havana To Rio
Жанр: Latin Jazz / Cuban Jazz / Piano
Год выпуска диска: 2000
Производитель диска: Velas (VLS 2006-2)
Аудио кодек: FLAC
Тип рипа: tracks+.cue
Битрейт аудио: lossless
Продолжительность: 0:45:36
Треклист:
01. Baiao De Lacan (2:53)
02. Mambo Inn (5:03)
03. Fin Del Baile (6:04)
04. Contradanza (5:03)
05. Reencuentruo (9:31)
06. Isla (6:54)
07. Bilongo (5:14)
08. Sophisticated Lady (3:47)
09. Vinheta (1:09)

Ernán López-Nussa - piano

За рип спасибо pastafaricubensis

.
.
 
Exact Audio Copy V0.99 prebeta 4 from 23. January 2008

EAC extraction logfile from 21. June 2009, 22:14

Ernбn Lуpez-Nussa / From Havana To Rio

Used drive : TSSTcorpCDDVDW TS-H653N Adapter: 2 ID: 2

Read mode : SecureUtilize accurate stream : YesDefeat audio cache : YesMake use of C2 pointers : No

Read offset correction : 6Overread into Lead-In and Lead-Out : NoFill up missing offset samples with silence : YesDelete leading and trailing silent blocks : NoNull samples used in CRC calculations : YesUsed interface : Native Win32 interface for Win NT & 2000Gap handling : Appended to previous track

Used output format : User Defined EncoderSelected bitrate : 1024 kBit/sQuality : HighAdd ID3 tag : NoCommand line compressor : C:\Program Files\FLAC -\flac.exeAdditional command line options : -5 -V -T "artist=%a" -T "title=%t" -T "album=%g" -T "date=%y" -T "tracknumber=%n" -T "genre=%m" -T comment="shared by pastafari cubensis" %s

TOC of the extracted CD

Track | Start | Length | Start sector | End sector --------------------------------------------------------- 1 | 0:00.00 | 2:52.60 | 0 | 12959 2 | 2:52.60 | 5:03.11 | 12960 | 35695 3 | 7:55.71 | 6:03.65 | 35696 | 62985 4 | 13:59.61 | 5:02.40 | 62986 | 85675 5 | 19:02.26 | 9:30.65 | 85676 | 128490 6 | 28:33.16 | 6:54.00 | 128491 | 159540 7 | 35:27.16 | 5:13.43 | 159541 | 183058 8 | 40:40.59 | 3:46.66 | 183059 | 200074 9 | 44:27.50 | 1:08.50 | 200075 | 205224

Track 1

Filename C:\CD_buffer\Ernбn Lуpez-Nussa - From Havana To Rio [2001] [FLAC]\01- Baiao De Lacan.wav

Pre-gap length 0:00:02.00

Peak level 100.0 % Track quality 100.0 % Test CRC 7F0DCA8A Copy CRC 7F0DCA8A Accurately ripped (confidence 3) [D3842514] Copy OK

Track 2

Filename C:\CD_buffer\Ernбn Lуpez-Nussa - From Havana To Rio [2001] [FLAC]\02- Mambo Inn.wav

Pre-gap length 0:00:00.13

Peak level 97.1 % Track quality 99.9 % Test CRC E10546CA Copy CRC E10546CA Accurately ripped (confidence 3) [04F0AAFE] Copy OK

Track 3

Filename C:\CD_buffer\Ernбn Lуpez-Nussa - From Havana To Rio [2001] [FLAC]\03- Fin Del Baile.wav

Peak level 96.4 % Track quality 100.0 % Test CRC 98D9C398 Copy CRC 98D9C398 Accurately ripped (confidence 3) [BF232D57] Copy OK

Track 4

Filename C:\CD_buffer\Ernбn Lуpez-Nussa - From Havana To Rio [2001] [FLAC]\04- Contradanza.wav

Peak level 99.7 % Track quality 100.0 % Test CRC EABD53D5 Copy CRC EABD53D5 Accurately ripped (confidence 3) [24DCBEC3] Copy OK

Track 5

Filename C:\CD_buffer\Ernбn Lуpez-Nussa - From Havana To Rio [2001] [FLAC]\05- Reencuentruo.wav

Peak level 98.9 % Track quality 100.0 % Test CRC 593C8378 Copy CRC 593C8378 Accurately ripped (confidence 3) [18A80B1D] Copy OK

Track 6

Filename C:\CD_buffer\Ernбn Lуpez-Nussa - From Havana To Rio [2001] [FLAC]\06- Isla.wav

Peak level 100.0 % Track quality 100.0 % Test CRC BD817C2E Copy CRC BD817C2E Accurately ripped (confidence 3) [C90BF61C] Copy OK

Track 7

Filename C:\CD_buffer\Ernбn Lуpez-Nussa - From Havana To Rio [2001] [FLAC]\07- Bilongo.wav

Peak level 98.4 % Track quality 100.0 % Test CRC F134CBC6 Copy CRC F134CBC6 Accurately ripped (confidence 3) [0F236F35] Copy OK

Track 8

Filename C:\CD_buffer\Ernбn Lуpez-Nussa - From Havana To Rio [2001] [FLAC]\08- Sophisticated Lady.wav

Peak level 97.6 % Track quality 100.0 % Test CRC 1F4143C9 Copy CRC 1F4143C9 Accurately ripped (confidence 3) [0AE2C260] Copy OK

Track 9

Filename C:\CD_buffer\Ernбn Lуpez-Nussa - From Havana To Rio [2001] [FLAC]\09- Vinheta.wav

Peak level 42.6 % Track quality 100.0 % Test CRC 77AD76D3 Copy CRC 77AD76D3 Accurately ripped (confidence 3) [4359C29F] Copy OK

All tracks accurately ripped

No errors occurred

End of status report
 
REM GENRE JazzREM DATE 2001REM DISCID 760AB009REM COMMENT "ExactAudioCopy v0.99pb4"PERFORMER "Ernбn Lуpez-Nussa"TITLE "From Havana To Rio"FILE "Ernбn Lуpez-Nussa - From Havana To Rio [2001] [FLAC]\01- Baiao De Lacan.wav" WAVE TRACK 01 AUDIO TITLE "Baiao De Lacan" PERFORMER "Ernбn Lуpez-Nussa" INDEX 01 00:00:00 TRACK 02 AUDIO TITLE "Mambo Inn" PERFORMER "Ernбn Lуpez-Nussa" INDEX 00 02:52:50FILE "Ernбn Lуpez-Nussa - From Havana To Rio [2001] [FLAC]\02- Mambo Inn.wav" WAVE INDEX 01 00:00:00FILE "Ernбn Lуpez-Nussa - From Havana To Rio [2001] [FLAC]\03- Fin Del Baile.wav" WAVE TRACK 03 AUDIO TITLE "Fin Del Baile" PERFORMER "Ernбn Lуpez-Nussa" INDEX 01 00:00:00FILE "Ernбn Lуpez-Nussa - From Havana To Rio [2001] [FLAC]\04- Contradanza.wav" WAVE TRACK 04 AUDIO TITLE "Contradanza" PERFORMER "Ernбn Lуpez-Nussa" INDEX 01 00:00:00FILE "Ernбn Lуpez-Nussa - From Havana To Rio [2001] [FLAC]\05- Reencuentruo.wav" WAVE TRACK 05 AUDIO TITLE "Reencuentruo" PERFORMER "Ernбn Lуpez-Nussa" INDEX 01 00:00:00FILE "Ernбn Lуpez-Nussa - From Havana To Rio [2001] [FLAC]\06- Isla.wav" WAVE TRACK 06 AUDIO TITLE "Isla" PERFORMER "Ernбn Lуpez-Nussa" INDEX 01 00:00:00FILE "Ernбn Lуpez-Nussa - From Havana To Rio [2001] [FLAC]\07- Bilongo.wav" WAVE TRACK 07 AUDIO TITLE "Bilongo" PERFORMER "Ernбn Lуpez-Nussa" INDEX 01 00:00:00FILE "Ernбn Lуpez-Nussa - From Havana To Rio [2001] [FLAC]\08- Sophisticated Lady.wav" WAVE TRACK 08 AUDIO TITLE "Sophisticated Lady" PERFORMER "Ernбn Lуpez-Nussa" INDEX 01 00:00:00FILE "Ernбn Lуpez-Nussa - From Havana To Rio [2001] [FLAC]\09- Vinheta.wav" WAVE TRACK 09 AUDIO TITLE "Vinheta" PERFORMER "Ernбn Lуpez-Nussa" INDEX 01 00:00:00


Трекер:  [ 28-Янв-2012 18:26 ]

  

Скачать .torrent

Размер .torrent файла 11 KB


Размер: 266 MB
Хэш (hash) релиза: 7011d60b58fe7669acddc8e6b5390db3509cc381

Еще никто не оставлял запись к записи скачать торрент Ernan Lopez-Nussa - From Havana To Rio - 2000, FLAC . Будь первым!

!Обратная связь