Скачать через торрент музыку Eric Dolphy - Out There бесплатно без регистрации torrent

Если у вас наблюдаются проблемы со скриншотами, переходом по ссылками, скачиванием торрентов - проблемы в блокировщике рекламы AdBlock. #хорошегоДня!


Статистика раздачи
Размер:  186 MB   |    Зарегистрирован:  5 лет 8 месяцев   |    .torrent скачан:  41 раз   |   
Раздают:  1  
   
Загрузка...
 
Автор Сообщение

Umakiro

avatar Umakiro


Eric Dolphy - Out There
Жанр: Free-Jazz
Год выпуска диска: 1982
Производитель диска: Prestige New Jazz/OJC (OJCCD-023-2 / NJ-8252)
Аудио кодек: FLAC
Тип рипа: tracks+.cue
Битрейт аудио: lossless
Продолжительность: 0:34:13
Треклист:
01. Out There (6:55)
02. Serene (7:02)
03. The Baron (2:58)
04. Eclipse (2:46)
05. 17 West (4:53)
06. Sketch of Melba (4:40)
07. Feathers (5:00)

Eric Dolphy - alto sax, flute, B-flat and bass clarinet
Ron Carter - cello
George Duvivier - bass
Roy Haynes - drums

Recorded in Englewood Cliffs, NJ; August 16, 1960

За релиз спасибо maestrowei
 
Exact Audio Copy V0.99 prebeta 4 from 23. January 2008

EAC extraction logfile from 2. February 2009, 19:18

Eric Dolphy / Out There

Used drive : TSSTcorpDVD+-RW TS-H653F Adapter: 3 ID: 0

Read mode : SecureUtilize accurate stream : YesDefeat audio cache : YesMake use of C2 pointers : No

Read offset correction : 6Overread into Lead-In and Lead-Out : NoFill up missing offset samples with silence : YesDelete leading and trailing silent blocks : NoNull samples used in CRC calculations : YesUsed interface : Native Win32 interface for Win NT & 2000Gap handling : Appended to previous track

Used output format : User Defined EncoderSelected bitrate : 128 kBit/sQuality : HighAdd ID3 tag : NoCommand line compressor : C:\Exact Audio Copy\Flac\flac.exeAdditional command line options : -V -8 -T "artist=%a" -T "title=%t" -T "album=%g" -T "date=%y" -T "tracknumber=%n" -T "genre=%m" %s

TOC of the extracted CD

Track | Start | Length | Start sector | End sector --------------------------------------------------------- 1 | 0:00.00 | 6:55.10 | 0 | 31134 2 | 6:55.10 | 7:02.00 | 31135 | 62784 3 | 13:57.10 | 2:58.17 | 62785 | 76151 4 | 16:55.27 | 2:45.70 | 76152 | 88596 5 | 19:41.22 | 4:52.38 | 88597 | 110534 6 | 24:33.60 | 4:39.47 | 110535 | 131506 7 | 29:13.32 | 5:00.00 | 131507 | 154006

Track 1

Filename C:\Eric Dolphy - Out There (1982) [FLAC]\01 - Out There.wav

Pre-gap length 0:00:02.00

Peak level 73.8 % Track quality 100.0 % Test CRC 06573B62 Copy CRC 06573B62 Accurately ripped (confidence 2) [2C04C7F9] Copy OK

Track 2

Filename C:\Eric Dolphy - Out There (1982) [FLAC]\02 - Serene.wav

Pre-gap length 0:00:02.50

Peak level 71.7 % Track quality 100.0 % Test CRC 763685B8 Copy CRC 763685B8 Accurately ripped (confidence 2) [30B49306] Copy OK

Track 3

Filename C:\Eric Dolphy - Out There (1982) [FLAC]\03 - The Baron.wav

Pre-gap length 0:00:02.13

Peak level 68.3 % Track quality 100.0 % Test CRC 846154D0 Copy CRC 846154D0 Accurately ripped (confidence 2) [D4C54BD9] Copy OK

Track 4

Filename C:\Eric Dolphy - Out There (1982) [FLAC]\04 - Eclipse.wav

Pre-gap length 0:00:03.36

Peak level 42.3 % Track quality 100.0 % Test CRC 4F68CBAC Copy CRC 4F68CBAC Accurately ripped (confidence 2) [827A5E55] Copy OK

Track 5

Filename C:\Eric Dolphy - Out There (1982) [FLAC]\05 - 17 West.wav

Pre-gap length 0:00:01.62

Peak level 63.7 % Track quality 100.0 % Test CRC 7047520A Copy CRC 7047520A Accurately ripped (confidence 2) [155D8A96] Copy OK

Track 6

Filename C:\Eric Dolphy - Out There (1982) [FLAC]\06 - Sketch of Melba.wav

Pre-gap length 0:00:03.46

Peak level 43.1 % Track quality 100.0 % Test CRC 0C57B40A Copy CRC 0C57B40A Accurately ripped (confidence 2) [8F1B1EE6] Copy OK

Track 7

Filename C:\Eric Dolphy - Out There (1982) [FLAC]\07 - Feathers.wav

Pre-gap length 0:00:01.82

Peak level 48.8 % Track quality 100.0 % Test CRC E6893336 Copy CRC E6893336 Track not present in AccurateRip database Copy OK

6 track(s) accurately ripped 1 track(s) not present in the AccurateRip database

Some tracks could not be verified as accurate

No errors occurred

End of status report
 
REM GENRE JazzREM DATE 1982REM DISCID 5B080507REM COMMENT "ExactAudioCopy v0.99pb4"FILE "01 - Out There.wav" WAVE TRACK 01 AUDIO INDEX 01 00:00:00 TRACK 02 AUDIO INDEX 00 06:52:47FILE "02 - Serene.wav" WAVE INDEX 01 00:00:00 TRACK 03 AUDIO INDEX 00 06:59:65FILE "03 - The Baron.wav" WAVE INDEX 01 00:00:00 TRACK 04 AUDIO INDEX 00 02:54:65FILE "04 - Eclipse.wav" WAVE INDEX 01 00:00:00 TRACK 05 AUDIO INDEX 00 02:44:23FILE "05 - 17 West.wav" WAVE INDEX 01 00:00:00 TRACK 06 AUDIO INDEX 00 04:49:03FILE "06 - Sketch of Melba.wav" WAVE INDEX 01 00:00:00 TRACK 07 AUDIO INDEX 00 04:37:60FILE "07 - Feathers.wav" WAVE INDEX 01 00:00:00


Трекер:  [ 28-Янв-2012 18:25 ]

  

Скачать .torrent

Размер .torrent файла 15 KB


Размер: 186 MB
Хэш (hash) релиза: e2a7001f9275851f820dfdb6259e3fcc308ebdf9

Еще никто не оставлял запись к записи скачать торрент Eric Dolphy - Out There . Будь первым!

!Обратная связь