Скачать через торрент музыку George Shearing & Hank Jones - The Spirit of 176 бесплатно без регистрации torrent

Если у вас наблюдаются проблемы со скриншотами, переходом по ссылками, скачиванием торрентов - проблемы в блокировщике рекламы AdBlock. #хорошегоДня!


Статистика раздачи
Размер:  182 MB   |    Зарегистрирован:  5 лет 8 месяцев   |    .torrent скачан:  30 раз   |   
Раздают:  1  
   
Загрузка...
 
Автор Сообщение

Umakiro

avatar Umakiro


George Shearing & Hank Jones - The Spirit of 176
Жанр: Bop / Cool / Piano
Год выпуска диска: 2003
Производитель диска: Concord Jazz (SACD-1009-6)
Аудио кодек: FLAC
Тип рипа: tracks+.cue
Битрейт аудио: lossless
Продолжительность: 0:55:32
Источник: AvaxHome / jazzzoid
Треклист:
01. Oh, Look at Me Now (3:27)
02. Angel Eyes (3:54)
03. I Mean You (3:18)
04. You Don't Know What Love Is (4:23)
05. To Hank Jones (4:27)
06. Minor Contention (2:44)
07. Ask Me Now (5:00)
08. Triste (3:26)
09. Take A Good Look (3:21)
10. Sweet Lorraine (3:58)
11. Young No More (5:29)
12. Lonely Moments (4:19)
13. Star Eyes (4:03)
14. Confirmation (3:44)

George Shearing - piano
Hank Jones - piano

Recorded at A&R Studios, New York, March 1988
 
Exact Audio Copy V0.99 prebeta 3 from 28. July 2007

Отчёт EAC об извлечении, выполненном 7. сентября 2008, 20:05

George Shearing and Hank Jones / The Spirit of 176

Дисковод: _NEC DVD_RW ND-3540A Adapter: 2 ID: 0

Режим чтения : ДостоверностьИспользование точного потока : ДаОтключение кэша аудио : ДаИспользование указателей C2 : Нет

Коррекция смещения при чтении : 48Способность читать области Lead-in и Lead-out : НетЗаполнение пропущенных сэмплов тишиной : ДаУдаление блоков с тишиной в начале и конце : НетПри вычислениях CRC использовались нулевые сэмплы : ДаИнтерфейс : Установленный внешний ASPI-интерфейс

Выходной формат : Пользовательский кодировщикВыбранный битрейт : 768 kBit/sКачество : ВысокийДобавление ID3-тэга : ДаУтилита сжатия : C:\Program Files\Exact Audio Copy\FLAC\FLAC.EXEДополнительные параметры : -6 -V -T "ARTIST=%a" -T "TITLE=%t" -T "ALBUM=%g" -T "DATE=%y" -T "TRACKNUMBER=%n" -T "GENRE=%m" -T "COMMENT=%e" %s -o %d

TOC извлечённого CD

Трек | Старт | Длительность | Начальный сектор | Конечный сектор --------------------------------------------------------------------- 1 | 0:00.00 | 3:26.60 | 0 | 15509 2 | 3:26.60 | 3:53.65 | 15510 | 33049 3 | 7:20.50 | 3:18.15 | 33050 | 47914 4 | 10:38.65 | 4:22.40 | 47915 | 67604 5 | 15:01.30 | 4:26.40 | 67605 | 87594 6 | 19:27.70 | 2:44.30 | 87595 | 99924 7 | 22:12.25 | 5:00.13 | 99925 | 122437 8 | 27:12.38 | 3:25.47 | 122438 | 137859 9 | 30:38.10 | 3:21.15 | 137860 | 152949 10 | 33:59.25 | 3:57.53 | 152950 | 170777 11 | 37:57.03 | 5:28.65 | 170778 | 195442 12 | 43:25.68 | 4:19.12 | 195443 | 214879 13 | 47:45.05 | 4:02.65 | 214880 | 233094 14 | 51:47.70 | 3:43.65 | 233095 | 249884

Характеристики диапазона извлечения и сообщения об ошибках

Выбранный диапазон

Имя файла C:\Documents and Settings\Миша\Мои документы\George Shearing and Hank Jones - The Spirit Of 176\George Shearing and Hank Jones - The Spirit of 176.wav

Пиковый уровень 60.7 % Качество диапазона 100.0 % CRC копии 01C46934 Копирование... OK

Ошибок не произошло

AccurateRip: сводка

Трек 1 нет в базе данныхТрек 2 нет в базе данныхТрек 3 нет в базе данныхТрек 4 нет в базе данныхТрек 5 нет в базе данныхТрек 6 нет в базе данныхТрек 7 нет в базе данныхТрек 8 нет в базе данныхТрек 9 нет в базе данныхТрек 10 нет в базе данныхТрек 11 нет в базе данныхТрек 12 нет в базе данныхТрек 13 нет в базе данныхТрек 14 нет в базе данных

Ни одного трека нет в базе AccurateRip

Конец отчёта


Трекер:  [ 28-Янв-2012 18:24 ]

  

Скачать .torrent

Размер .torrent файла 15 KB


Размер: 182 MB
Хэш (hash) релиза: ece75dc78fb8bfca701a3a74b6e4549dbead177c

Еще никто не оставлял запись к записи скачать торрент George Shearing & Hank Jones - The Spirit of 176 . Будь первым!

!Обратная связь