Скачать через торрент музыку Hank Jones - Live at Maybeck Recital Hall бесплатно без регистрации torrent

Если у вас наблюдаются проблемы со скриншотами, переходом по ссылками, скачиванием торрентов - проблемы в блокировщике рекламы AdBlock. #хорошегоДня!


Статистика раздачи
Размер:  231 MB   |    Зарегистрирован:  5 лет 8 месяцев   |    .torrent скачан:  25 раз   |   
Раздают:  1  
   
Загрузка...
 
Автор Сообщение

Umakiro

avatar Umakiro


Hank Jones - Live at Maybeck Recital Hall (Vol. 16)
Жанр: Post-Bop / Piano / Solo
Год выпуска диска: 1992
Производитель диска: Concord (CCD-4502)
Аудио кодек: FLAC
Тип рипа: tracks+.cue
Битрейт аудио: lossless
Продолжительность: 0:59:35
Источник: what.cd / Vilens40
Треклист:
01. Introductory Announcement (0:15)
02. I Guess I'll Have to Change My Plan (3:15)
03. It's the Talk of the Town (3:47)
04. The Very Thought of You (5:00)
05. The Night We Called It A Day (3:21)
06. Bluesette (3:08)
07. A Child Is Born (4:38)
08. What Is this Thing Called Love (3:35)
09. Oh What A Beautiful Mornin' (5:05)
10. Six & Four (3:44)
11. I Cover the Waterfront (4:21)
12. Memories of You (4:24)
13. Spoken Introduction (0:15)
14. Blue Monk (4:44)
15. 'Round Midnight (5:06)
16. Spoken Introduction (0:20)
17. Oh, Look At Me Now (4:38)

Hank Jones - piano

Recorded live at Maybeck Recital Hall, Berkeley, California.
 
X Lossless Decoder version 20100505 (119.1)

XLD extraction logfile from 2010-05-05 17:34:49 -0400

Hank Jones / Live at Maybeck Recital Hall, Vol. Sixteen

Used drive : MATSHITA DVD-R UJ-857E (revision ZF1E)

Use cdparanoia mode : YES (CDParanoia III 10.2 engine)Disable audio cache : OK for the drive with cache less than 2750KBMake use of C2 pointers : NORead offset correction : 102Max retry count : 100

TOC of the extracted CD Track | Start | Length | Start sector | End sector --------------------------------------------------------- 1 | 00:00:00 | 00:14:45 | 0 | 1094 2 | 00:14:45 | 03:15:35 | 1095 | 15754 3 | 03:30:05 | 03:47:02 | 15755 | 32781 4 | 07:17:07 | 05:00:10 | 32782 | 55291 5 | 12:17:17 | 03:20:73 | 55292 | 70364 6 | 15:38:15 | 03:07:65 | 70365 | 84454 7 | 18:46:05 | 04:37:42 | 84455 | 105271 8 | 23:23:47 | 03:34:63 | 105272 | 121384 9 | 26:58:35 | 05:04:52 | 121385 | 144236 10 | 32:03:12 | 03:43:40 | 144237 | 161001 11 | 35:46:52 | 04:20:50 | 161002 | 180551 12 | 40:07:27 | 04:24:35 | 180552 | 200386 13 | 44:31:62 | 00:14:50 | 200387 | 201486 14 | 44:46:37 | 04:44:13 | 201487 | 222799 15 | 49:30:50 | 05:06:30 | 222800 | 245779 16 | 54:37:05 | 00:19:67 | 245780 | 247271 17 | 54:56:72 | 04:38:25 | 247272 | 268146

All Tracks Album gain : 0.20 dB Peak : 0.948883

Track 01 Filename : /Volumes/MADLIB/01 Hank Jones - Introductory Announcement.flac

Pre-gap length : 00:02:00

Track gain : -0.24 dB Peak : 0.600616 CRC32 hash (test run) : 5376EB59 CRC32 hash : 5376EB59 CRC32 hash (skip zero) : 09CC9796 AccurateRip signature : E278B4F8 ->Track not present in AccurateRip database. Statistics Read error : 0 Skipped (treated as error) : 0 Edge jitter error (maybe fixed) : 0 Atom jitter error (maybe fixed) : 0 Drift error (maybe fixed) : 0 Dropped bytes error (maybe fixed) : 0 Duplicated bytes error (maybe fixed) : 0 Inconsistency in error sectors : 0

Track 02 Filename : /Volumes/MADLIB/02 Hank Jones - I Guess I'll Have to Change My Plan.flac

Track gain : 0.53 dB Peak : 0.747345 CRC32 hash (test run) : 6CF8D250 CRC32 hash : 6CF8D250 CRC32 hash (skip zero) : 68909FE9 AccurateRip signature : 624CAAB5 ->Track not present in AccurateRip database. Statistics Read error : 0 Skipped (treated as error) : 0 Edge jitter error (maybe fixed) : 0 Atom jitter error (maybe fixed) : 0 Drift error (maybe fixed) : 0 Dropped bytes error (maybe fixed) : 0 Duplicated bytes error (maybe fixed) : 0 Inconsistency in error sectors : 0

Track 03 Filename : /Volumes/MADLIB/03 Hank Jones - It's the Talk of the Town.flac

Track gain : 0.29 dB Peak : 0.945282 CRC32 hash (test run) : 6D1A9877 CRC32 hash : 6D1A9877 CRC32 hash (skip zero) : BF819FB2 AccurateRip signature : 47F11886 ->Track not present in AccurateRip database. Statistics Read error : 0 Skipped (treated as error) : 0 Edge jitter error (maybe fixed) : 0 Atom jitter error (maybe fixed) : 0 Drift error (maybe fixed) : 0 Dropped bytes error (maybe fixed) : 0 Duplicated bytes error (maybe fixed) : 0 Inconsistency in error sectors : 0

Track 04 Filename : /Volumes/MADLIB/04 Hank Jones - The Very Thought of You.flac

Track gain : 1.18 dB Peak : 0.773499 CRC32 hash (test run) : 22DE8B80 CRC32 hash : 22DE8B80 CRC32 hash (skip zero) : D232D866 AccurateRip signature : B5A742F3 ->Track not present in AccurateRip database. Statistics Read error : 0 Skipped (treated as error) : 0 Edge jitter error (maybe fixed) : 0 Atom jitter error (maybe fixed) : 0 Drift error (maybe fixed) : 0 Dropped bytes error (maybe fixed) : 0 Duplicated bytes error (maybe fixed) : 0 Inconsistency in error sectors : 0

Track 05 Filename : /Volumes/MADLIB/05 Hank Jones - The Night We Called It A Day.flac

Track gain : -1.01 dB Peak : 0.866791 CRC32 hash (test run) : 7E30DCE1 CRC32 hash : 7E30DCE1 CRC32 hash (skip zero) : 13B6F580 AccurateRip signature : 51F91612 ->Track not present in AccurateRip database. Statistics Read error : 0 Skipped (treated as error) : 0 Edge jitter error (maybe fixed) : 0 Atom jitter error (maybe fixed) : 0 Drift error (maybe fixed) : 0 Dropped bytes error (maybe fixed) : 0 Duplicated bytes error (maybe fixed) : 0 Inconsistency in error sectors : 0

Track 06 Filename : /Volumes/MADLIB/06 Hank Jones - Bluesette.flac

Track gain : -0.73 dB Peak : 0.793671 CRC32 hash (test run) : 957A3868 CRC32 hash : 957A3868 CRC32 hash (skip zero) : 20EB7E49 AccurateRip signature : AD11A9FA ->Track not present in AccurateRip database. Statistics Read error : 0 Skipped (treated as error) : 0 Edge jitter error (maybe fixed) : 0 Atom jitter error (maybe fixed) : 0 Drift error (maybe fixed) : 0 Dropped bytes error (maybe fixed) : 0 Duplicated bytes error (maybe fixed) : 0 Inconsistency in error sectors : 0

Track 07 Filename : /Volumes/MADLIB/07 Hank Jones - A Child Is Born.flac

Track gain : 2.51 dB Peak : 0.675446 CRC32 hash (test run) : 828CCAB3 CRC32 hash : 828CCAB3 CRC32 hash (skip zero) : 5ED9B812 AccurateRip signature : 0760E001 ->Track not present in AccurateRip database. Statistics Read error : 0 Skipped (treated as error) : 0 Edge jitter error (maybe fixed) : 0 Atom jitter error (maybe fixed) : 0 Drift error (maybe fixed) : 0 Dropped bytes error (maybe fixed) : 0 Duplicated bytes error (maybe fixed) : 0 Inconsistency in error sectors : 0

Track 08 Filename : /Volumes/MADLIB/08 Hank Jones - What Is this Thing Called Love.flac

Track gain : 0.13 dB Peak : 0.763550 CRC32 hash (test run) : D0BBD748 CRC32 hash : D0BBD748 CRC32 hash (skip zero) : 505EC9B0 AccurateRip signature : 71C967AE ->Track not present in AccurateRip database. Statistics Read error : 0 Skipped (treated as error) : 0 Edge jitter error (maybe fixed) : 0 Atom jitter error (maybe fixed) : 0 Drift error (maybe fixed) : 0 Dropped bytes error (maybe fixed) : 0 Duplicated bytes error (maybe fixed) : 0 Inconsistency in error sectors : 0

Track 09 Filename : /Volumes/MADLIB/09 Hank Jones - Oh What A Beautiful Mornin'.flac

Track gain : -0.17 dB Peak : 0.847015 CRC32 hash (test run) : 4A36C5BB CRC32 hash : 4A36C5BB CRC32 hash (skip zero) : 9D720AFB AccurateRip signature : CBE407B4 ->Track not present in AccurateRip database. Statistics Read error : 0 Skipped (treated as error) : 0 Edge jitter error (maybe fixed) : 0 Atom jitter error (maybe fixed) : 0 Drift error (maybe fixed) : 0 Dropped bytes error (maybe fixed) : 0 Duplicated bytes error (maybe fixed) : 0 Inconsistency in error sectors : 0

Track 10 Filename : /Volumes/MADLIB/10 Hank Jones - Six & Four.flac

Track gain : -0.64 dB Peak : 0.889954 CRC32 hash (test run) : 00F5DDBE CRC32 hash : 00F5DDBE CRC32 hash (skip zero) : 710E816C AccurateRip signature : DB5BB187 ->Track not present in AccurateRip database. Statistics Read error : 0 Skipped (treated as error) : 0 Edge jitter error (maybe fixed) : 0 Atom jitter error (maybe fixed) : 0 Drift error (maybe fixed) : 0 Dropped bytes error (maybe fixed) : 0 Duplicated bytes error (maybe fixed) : 0 Inconsistency in error sectors : 0

Track 11 Filename : /Volumes/MADLIB/11 Hank Jones - I Cover the Waterfront.flac

Track gain : -0.10 dB Peak : 0.731812 CRC32 hash (test run) : 181E4342 CRC32 hash : 181E4342 CRC32 hash (skip zero) : ADD7BF13 AccurateRip signature : A673BD71 ->Track not present in AccurateRip database. Statistics Read error : 0 Skipped (treated as error) : 0 Edge jitter error (maybe fixed) : 0 Atom jitter error (maybe fixed) : 0 Drift error (maybe fixed) : 0 Dropped bytes error (maybe fixed) : 0 Duplicated bytes error (maybe fixed) : 0 Inconsistency in error sectors : 0

Track 12 Filename : /Volumes/MADLIB/12 Hank Jones - Memories of You.flac

Track gain : 1.26 dB Peak : 0.704132 CRC32 hash (test run) : E5A0BF28 CRC32 hash : E5A0BF28 CRC32 hash (skip zero) : AEE0D640 AccurateRip signature : 7A482AC0 ->Track not present in AccurateRip database. Statistics Read error : 0 Skipped (treated as error) : 0 Edge jitter error (maybe fixed) : 0 Atom jitter error (maybe fixed) : 0 Drift error (maybe fixed) : 0 Dropped bytes error (maybe fixed) : 0 Duplicated bytes error (maybe fixed) : 0 Inconsistency in error sectors : 0

Track 13 Filename : /Volumes/MADLIB/13 Hank Jones - Spoken Introduction.flac

Track gain : 9.01 dB Peak : 0.326813 CRC32 hash (test run) : 09A0B193 CRC32 hash : 09A0B193 CRC32 hash (skip zero) : F7E07B58 AccurateRip signature : 5DE360AA ->Track not present in AccurateRip database. Statistics Read error : 0 Skipped (treated as error) : 0 Edge jitter error (maybe fixed) : 0 Atom jitter error (maybe fixed) : 0 Drift error (maybe fixed) : 0 Dropped bytes error (maybe fixed) : 0 Duplicated bytes error (maybe fixed) : 0 Inconsistency in error sectors : 0

Track 14 Filename : /Volumes/MADLIB/14 Hank Jones - Blue Monk.flac

Track gain : 0.25 dB Peak : 0.948883 CRC32 hash (test run) : F03F6BB4 CRC32 hash : F03F6BB4 CRC32 hash (skip zero) : 9E362309 AccurateRip signature : 5662A6B3 ->Track not present in AccurateRip database. Statistics Read error : 0 Skipped (treated as error) : 0 Edge jitter error (maybe fixed) : 0 Atom jitter error (maybe fixed) : 0 Drift error (maybe fixed) : 0 Dropped bytes error (maybe fixed) : 0 Duplicated bytes error (maybe fixed) : 0 Inconsistency in error sectors : 0

Track 15 Filename : /Volumes/MADLIB/15 Hank Jones - 'Round Midnight.flac

Track gain : 0.75 dB Peak : 0.745117 CRC32 hash (test run) : 203C28F4 CRC32 hash : 203C28F4 CRC32 hash (skip zero) : DD7E8911 AccurateRip signature : FE143BAA ->Track not present in AccurateRip database. Statistics Read error : 0 Skipped (treated as error) : 0 Edge jitter error (maybe fixed) : 0 Atom jitter error (maybe fixed) : 0 Drift error (maybe fixed) : 0 Dropped bytes error (maybe fixed) : 0 Duplicated bytes error (maybe fixed) : 0 Inconsistency in error sectors : 0

Track 16 Filename : /Volumes/MADLIB/16 Hank Jones - Spoken Introduction.flac

Track gain : 9.66 dB Peak : 0.304596 CRC32 hash (test run) : 1C861101 CRC32 hash : 1C861101 CRC32 hash (skip zero) : 7ACA10A3 AccurateRip signature : B489F65F ->Track not present in AccurateRip database. Statistics Read error : 0 Skipped (treated as error) : 0 Edge jitter error (maybe fixed) : 0 Atom jitter error (maybe fixed) : 0 Drift error (maybe fixed) : 0 Dropped bytes error (maybe fixed) : 0 Duplicated bytes error (maybe fixed) : 0 Inconsistency in error sectors : 0

Track 17 Filename : /Volumes/MADLIB/17 Hank Jones - Oh, Look At Me Now.flac

Track gain : -0.60 dB Peak : 0.793091 CRC32 hash (test run) : 501F3839 CRC32 hash : 501F3839 CRC32 hash (skip zero) : 2D3BFB32 AccurateRip signature : 8E911894 ->Track not present in AccurateRip database. Statistics Read error : 0 Skipped (treated as error) : 0 Edge jitter error (maybe fixed) : 0 Atom jitter error (maybe fixed) : 0 Drift error (maybe fixed) : 0 Dropped bytes error (maybe fixed) : 0 Duplicated bytes error (maybe fixed) : 0 Inconsistency in error sectors : 0

No errors occurred

End of status report
 
TITLE "Live at Maybeck Recital Hall, Vol. Sixteen"PERFORMER "Hank Jones"FILE "01 Hank Jones - Introductory Announcement.wav" WAVE TRACK 01 AUDIO TITLE "Introductory Announcement" INDEX 01 00:00:00FILE "02 Hank Jones - I Guess I'll Have to Change My Plan.wav" WAVE TRACK 02 AUDIO TITLE "I Guess I'll Have to Change My Plan" INDEX 01 00:00:00FILE "03 Hank Jones - It's the Talk of the Town.wav" WAVE TRACK 03 AUDIO TITLE "It's the Talk of the Town" INDEX 01 00:00:00FILE "04 Hank Jones - The Very Thought of You.wav" WAVE TRACK 04 AUDIO TITLE "The Very Thought of You" INDEX 01 00:00:00FILE "05 Hank Jones - The Night We Called It A Day.wav" WAVE TRACK 05 AUDIO TITLE "The Night We Called It A Day" INDEX 01 00:00:00FILE "06 Hank Jones - Bluesette.wav" WAVE TRACK 06 AUDIO TITLE "Bluesette" INDEX 01 00:00:00FILE "07 Hank Jones - A Child Is Born.wav" WAVE TRACK 07 AUDIO TITLE "A Child Is Born" INDEX 01 00:00:00FILE "08 Hank Jones - What Is this Thing Called Love.wav" WAVE TRACK 08 AUDIO TITLE "What Is this Thing Called Love" INDEX 01 00:00:00FILE "09 Hank Jones - Oh What A Beautiful Mornin'.wav" WAVE TRACK 09 AUDIO TITLE "Oh What A Beautiful Mornin'" INDEX 01 00:00:00FILE "10 Hank Jones - Six & Four.wav" WAVE TRACK 10 AUDIO TITLE "Six & Four" INDEX 01 00:00:00FILE "11 Hank Jones - I Cover the Waterfront.wav" WAVE TRACK 11 AUDIO TITLE "I Cover the Waterfront" INDEX 01 00:00:00FILE "12 Hank Jones - Memories of You.wav" WAVE TRACK 12 AUDIO TITLE "Memories of You" INDEX 01 00:00:00FILE "13 Hank Jones - Spoken Introduction.wav" WAVE TRACK 13 AUDIO TITLE "Spoken Introduction" INDEX 01 00:00:00FILE "14 Hank Jones - Blue Monk.wav" WAVE TRACK 14 AUDIO TITLE "Blue Monk" INDEX 01 00:00:00FILE "15 Hank Jones - 'Round Midnight.wav" WAVE TRACK 15 AUDIO TITLE "'Round Midnight" INDEX 01 00:00:00FILE "16 Hank Jones - Spoken Introduction.wav" WAVE TRACK 16 AUDIO TITLE "Spoken Introduction" INDEX 01 00:00:00FILE "17 Hank Jones - Oh, Look At Me Now.wav" WAVE TRACK 17 AUDIO TITLE "Oh, Look At Me Now" INDEX 01 00:00:00


Трекер:  [ 28-Янв-2012 18:24 ]

  

Скачать .torrent

Размер .torrent файла 20 KB


Размер: 231 MB
Хэш (hash) релиза: 3e965265586c5809d7ebcb3be3fb302a768c48c8

Еще никто не оставлял запись к записи скачать торрент Hank Jones - Live at Maybeck Recital Hall . Будь первым!

!Обратная связь