Скачать через торрент музыку Oliver Jones & Hank Jones - Pleased To Meet You - 2009, FLAC бесплатно без регистрации torrent

Если у вас наблюдаются проблемы со скриншотами, переходом по ссылками, скачиванием торрентов - проблемы в блокировщике рекламы AdBlock. #хорошегоДня!


Статистика раздачи
Размер:  284 MB   |    Зарегистрирован:  5 лет 8 месяцев   |    .torrent скачан:  35 раз   |   
Раздают:  1  
   
Загрузка...
 
Автор Сообщение

Umakiro

avatar Umakiro


Oliver Jones & Hank Jones - Pleased To Meet You
Жанр: Post-Bop / Hard-Bop / Piano
Год выпуска диска: 2009
Производитель диска: Justin Time Records (236-2)
Аудио кодек: FLAC
Тип рипа: tracks+.cue
Битрейт аудио: lossless
Продолжительность: 0:52:57
Треклист:
01. What Am I Here For? (6:30)
02. Groove Merchant (5:18)
03. Ripples (4:20)
04. Makin' Whoopee (4:44)
05. I'll Remember April (5:19)
06. Star Eyes (6:10)
07. Blues For Big Scotia (4:55)
08. Cakewalk (4:39)
09. Monk's Mood (2:32)
10. I Remember OP (6:42)
11. Lonely Woman (1:48)

Hank Jones - piano, solo piano on #9, 11
Oliver Jones - piano
Brandi Disterheft - bass [#1-3]
Jim Doxas - drums [#1-3]Источник: what.cd / pepperpuppy
 
Exact Audio Copy V0.99 prebeta 5 from 4. May 2009

EAC extraction logfile from 18. March 2010, 12:01

Oliver Jones, Hank Jones / Pleased To Meet You

Used drive : LITE-ON DVDRW LH-20A1P Adapter: 0 ID: 0

Read mode : SecureUtilize accurate stream : YesDefeat audio cache : YesMake use of C2 pointers : No

Read offset correction : 6Overread into Lead-In and Lead-Out : NoFill up missing offset samples with silence : YesDelete leading and trailing silent blocks : NoNull samples used in CRC calculations : YesUsed interface : Native Win32 interface for Win NT & 2000Gap handling : Appended to previous track

Used output format : User Defined EncoderSelected bitrate : 768 kBit/sQuality : HighAdd ID3 tag : NoCommand line compressor : C:\Program Files\Exact Audio Copy\Flac\flac.exeAdditional command line options : -V -8 -T "artist=%a" -T "title=%t" -T "album=%g" -T "date=%y" -T "tracknumber=%n" -T "genre=%m" %s

TOC of the extracted CD

Track | Start | Length | Start sector | End sector --------------------------------------------------------- 1 | 0:00.00 | 6:29.41 | 0 | 29215 2 | 6:29.41 | 5:18.29 | 29216 | 53094 3 | 11:47.70 | 4:19.64 | 53095 | 72583 4 | 16:07.59 | 4:44.25 | 72584 | 93908 5 | 20:52.09 | 5:19.18 | 93909 | 117851 6 | 26:11.27 | 6:09.49 | 117852 | 145575 7 | 32:21.01 | 4:55.03 | 145576 | 167703 8 | 37:16.04 | 4:38.45 | 167704 | 188598 9 | 41:54.49 | 2:32.34 | 188599 | 200032 10 | 44:27.08 | 6:41.47 | 200033 | 230154 11 | 51:08.55 | 1:48.08 | 230155 | 238262

Track 1

Filename Q:\EAC\Oliver Jones, Hank Jones - 2009 - Pleased To Meet You\01 - What Am I Here For .wav

Pre-gap length 0:00:02.00

Peak level 99.9 % Track quality 100.0 % Test CRC A8DB7115 Copy CRC A8DB7115 Accurately ripped (confidence 1) [841EB4E3] Copy OK

Track 2

Filename Q:\EAC\Oliver Jones, Hank Jones - 2009 - Pleased To Meet You\02 - Groove Merchant.wav

Pre-gap length 0:00:03.26

Peak level 100.0 % Track quality 100.0 % Test CRC 683AF4C6 Copy CRC 683AF4C6 Accurately ripped (confidence 1) [F35F4BF7] Copy OK

Track 3

Filename Q:\EAC\Oliver Jones, Hank Jones - 2009 - Pleased To Meet You\03 - Ripples.wav

Pre-gap length 0:00:03.40

Peak level 100.0 % Track quality 100.0 % Test CRC 9F9E59AF Copy CRC 9F9E59AF Accurately ripped (confidence 1) [22FC78B6] Copy OK

Track 4

Filename Q:\EAC\Oliver Jones, Hank Jones - 2009 - Pleased To Meet You\04 - Makin' Whoopee.wav

Pre-gap length 0:00:03.22

Peak level 96.8 % Track quality 100.0 % Test CRC DC196733 Copy CRC DC196733 Accurately ripped (confidence 1) [87324E7F] Copy OK

Track 5

Filename Q:\EAC\Oliver Jones, Hank Jones - 2009 - Pleased To Meet You\05 - I'll Remember April.wav

Pre-gap length 0:00:03.28

Peak level 97.1 % Track quality 100.0 % Test CRC C9A2F9E3 Copy CRC C9A2F9E3 Accurately ripped (confidence 1) [1AE83D0D] Copy OK

Track 6

Filename Q:\EAC\Oliver Jones, Hank Jones - 2009 - Pleased To Meet You\06 - Star Eyes.wav

Pre-gap length 0:00:03.36

Peak level 96.6 % Track quality 100.0 % Test CRC D3A85ACF Copy CRC D3A85ACF Accurately ripped (confidence 1) [8E399142] Copy OK

Track 7

Filename Q:\EAC\Oliver Jones, Hank Jones - 2009 - Pleased To Meet You\07 - Blues For Big Scotia.wav

Pre-gap length 0:00:03.57

Peak level 97.3 % Track quality 100.0 % Test CRC BF5FF07C Copy CRC BF5FF07C Accurately ripped (confidence 1) [ED003975] Copy OK

Track 8

Filename Q:\EAC\Oliver Jones, Hank Jones - 2009 - Pleased To Meet You\08 - Cakewalk.wav

Pre-gap length 0:00:03.45

Peak level 99.8 % Track quality 99.9 % Test CRC 567FB7A2 Copy CRC 567FB7A2 Accurately ripped (confidence 1) [FA15FB2D] Copy OK

Track 9

Filename Q:\EAC\Oliver Jones, Hank Jones - 2009 - Pleased To Meet You\09 - Monk's Mood.wav

Pre-gap length 0:00:03.34

Peak level 96.6 % Track quality 100.0 % Test CRC ECCF226A Copy CRC ECCF226A Accurately ripped (confidence 1) [01093F94] Copy OK

Track 10

Filename Q:\EAC\Oliver Jones, Hank Jones - 2009 - Pleased To Meet You\10 - I Remember OP.wav

Pre-gap length 0:00:02.97

Peak level 97.3 % Track quality 100.0 % Test CRC C6E0638F Copy CRC C6E0638F Accurately ripped (confidence 1) [089C1895] Copy OK

Track 11

Filename Q:\EAC\Oliver Jones, Hank Jones - 2009 - Pleased To Meet You\11 - Lonely Woman.wav

Pre-gap length 0:00:03.36

Peak level 96.7 % Track quality 100.0 % Test CRC 4DCDDF81 Copy CRC 4DCDDF81 Accurately ripped (confidence 1) [5DD7AFFC] Copy OK

All tracks accurately ripped

No errors occurred

End of status report
 
REM GENRE JazzREM DATE 2009REM DISCID A20C680BREM COMMENT "ExactAudioCopy v0.99pb5"FILE "Oliver Jones, Hank Jones - 2009 - Pleased To Meet You\01 - What Am I Here For .wav" WAVE TRACK 01 AUDIO INDEX 01 00:00:00 TRACK 02 AUDIO INDEX 00 06:26:21FILE "Oliver Jones, Hank Jones - 2009 - Pleased To Meet You\02 - Groove Merchant.wav" WAVE INDEX 01 00:00:00 TRACK 03 AUDIO INDEX 00 05:14:74FILE "Oliver Jones, Hank Jones - 2009 - Pleased To Meet You\03 - Ripples.wav" WAVE INDEX 01 00:00:00 TRACK 04 AUDIO INDEX 00 04:16:47FILE "Oliver Jones, Hank Jones - 2009 - Pleased To Meet You\04 - Makin' Whoopee.wav" WAVE INDEX 01 00:00:00 TRACK 05 AUDIO INDEX 00 04:41:04FILE "Oliver Jones, Hank Jones - 2009 - Pleased To Meet You\05 - I'll Remember April.wav" WAVE INDEX 01 00:00:00 TRACK 06 AUDIO INDEX 00 05:15:66FILE "Oliver Jones, Hank Jones - 2009 - Pleased To Meet You\06 - Star Eyes.wav" WAVE INDEX 01 00:00:00 TRACK 07 AUDIO INDEX 00 06:06:06FILE "Oliver Jones, Hank Jones - 2009 - Pleased To Meet You\07 - Blues For Big Scotia.wav" WAVE INDEX 01 00:00:00 TRACK 08 AUDIO INDEX 00 04:51:44FILE "Oliver Jones, Hank Jones - 2009 - Pleased To Meet You\08 - Cakewalk.wav" WAVE INDEX 01 00:00:00 TRACK 09 AUDIO INDEX 00 04:35:19FILE "Oliver Jones, Hank Jones - 2009 - Pleased To Meet You\09 - Monk's Mood.wav" WAVE INDEX 01 00:00:00 TRACK 10 AUDIO INDEX 00 02:29:36FILE "Oliver Jones, Hank Jones - 2009 - Pleased To Meet You\10 - I Remember OP.wav" WAVE INDEX 01 00:00:00 TRACK 11 AUDIO INDEX 00 06:38:20FILE "Oliver Jones, Hank Jones - 2009 - Pleased To Meet You\11 - Lonely Woman.wav" WAVE INDEX 01 00:00:00


Трекер:  [ 28-Янв-2012 18:23 ]

  

Скачать .torrent

Размер .torrent файла 12 KB


Размер: 284 MB
Хэш (hash) релиза: 6bfc856c0a81eabe7c2994f66e6648b9b133907a

Еще никто не оставлял запись к записи скачать торрент Oliver Jones & Hank Jones - Pleased To Meet You - 2009, FLAC . Будь первым!

!Обратная связь