Скачать через торрент музыку The Great Jazz Trio - Standard Collection - 1987, FLAC бесплатно без регистрации torrent

Если у вас наблюдаются проблемы со скриншотами, переходом по ссылками, скачиванием торрентов - проблемы в блокировщике рекламы AdBlock. #хорошегоДня!


Статистика раздачи
Размер:  345 MB   |    Зарегистрирован:  5 лет 8 месяцев   |    .torrent скачан:  30 раз   |   
Раздают:  1  
   
Загрузка...
 
Автор Сообщение

Umakiro

avatar Umakiro


The Great Jazz Trio - Standard Collection
Жанр: Post-Bop
Год выпуска диска: 1987
Производитель диска: Denon
Аудио кодек: FLAC
Тип рипа: tracks+.cue
Битрейт аудио: lossless
Продолжительность: 1:09:35
Источник: what.cd / slithy
Треклист:
01. S'Wonderful (4:48)
02. Autumn in New York (4:02)
03. Our Love is Here to Stay (3:59)
04. Someone to Watch Over Me (4:48)
05. Isn't it Romantic (4:12)
06. Embraceable You (4:23)
07. In a Sentimental Mood (4:55)
08. Satin Doll (4:16)
09. Lush Life (3:30)
10. Sophisticated Lady (4:57)
11. Take the "A" Train (3:40)
12. Caravan (4:09)
13. Blue Monk (5:54)
14. Ruby Dear (5:02)
15. Monk's Dream (4:18)
16. Monk's Mood (2:41)

Hank Jones - piano
Jimmy Cobb - drums
Eddie Gomez - bass
Lewis Eley - violin
Tetsuo Yamada - violin
Hiroshi Watanabe - viola
Hiroto Kawamura - cello
 
X Lossless Decoder version 20091202 (114.5)

XLD extraction logfile from 2009-12-06 15:21:25 -0600

The Great Jazz Trio / Standard Collection

Used drive : MATSHITA CD-RW CW-8221 (revision GA0K)

Use cdparanoia mode : YES (CDParanoia III 10.2 engine)Disable audio cache : OK for the drive with cache less than 2750KBMake use of C2 pointers : NORead offset correction : 102Max retry count : 100

TOC of the extracted CD Track | Start | Length | Start sector | End sector --------------------------------------------------------- 1 | 00:00:00 | 04:47:38 | 0 | 21562 2 | 04:47:38 | 04:02:22 | 21563 | 39734 3 | 08:49:60 | 03:59:25 | 39735 | 57684 4 | 12:49:10 | 04:47:73 | 57685 | 79282 5 | 17:37:08 | 04:12:35 | 79283 | 98217 6 | 21:49:43 | 04:22:57 | 98218 | 117924 7 | 26:12:25 | 04:55:18 | 117925 | 140067 8 | 31:07:43 | 04:16:07 | 140068 | 159274 9 | 35:23:50 | 03:30:20 | 159275 | 175044 10 | 38:53:70 | 04:57:35 | 175045 | 197354 11 | 43:51:30 | 03:39:43 | 197355 | 213822 12 | 47:30:73 | 04:08:40 | 213823 | 232462 13 | 51:39:38 | 05:54:10 | 232463 | 259022 14 | 57:33:48 | 05:02:12 | 259023 | 281684 15 | 62:35:60 | 04:18:18 | 281685 | 301052 16 | 66:54:03 | 02:41:17 | 301053 | 313144

Track 01 Filename : /Users/joel/freshly_transcoded/The Great Jazz Trio/1987 - Standard Collection [FLAC]/01 - S'Wonderful(1).flac

CRC32 hash (test run) : 91D7E1C6 CRC32 hash : 91D7E1C6 CRC32 hash (skip zero) : 02EC7D5B AccurateRip signature : DBCC2473 ->Track not present in AccurateRip database. Statistics Read error : 0 Skipped (treated as error) : 0 Edge jitter error (maybe fixed) : 0 Atom jitter error (maybe fixed) : 0 Drift error (maybe fixed) : 0 Dropped bytes error (maybe fixed) : 0 Duplicated bytes error (maybe fixed) : 0 Inconsistency in error sectors : 0

Track 02 Filename : /Users/joel/freshly_transcoded/The Great Jazz Trio/1987 - Standard Collection [FLAC]/02 - Autumn in New York.flac

CRC32 hash (test run) : 2E957AF7 CRC32 hash : 2E957AF7 CRC32 hash (skip zero) : 23960234 AccurateRip signature : 502F7465 ->Track not present in AccurateRip database. Statistics Read error : 0 Skipped (treated as error) : 0 Edge jitter error (maybe fixed) : 0 Atom jitter error (maybe fixed) : 0 Drift error (maybe fixed) : 0 Dropped bytes error (maybe fixed) : 0 Duplicated bytes error (maybe fixed) : 0 Inconsistency in error sectors : 0

Track 03 Filename : /Users/joel/freshly_transcoded/The Great Jazz Trio/1987 - Standard Collection [FLAC]/03 - Our Love is Here to Stay.flac

CRC32 hash (test run) : 65C2C9BB CRC32 hash : 65C2C9BB CRC32 hash (skip zero) : CD81CBAA AccurateRip signature : C51C2BC1 ->Track not present in AccurateRip database. Statistics Read error : 0 Skipped (treated as error) : 0 Edge jitter error (maybe fixed) : 0 Atom jitter error (maybe fixed) : 0 Drift error (maybe fixed) : 0 Dropped bytes error (maybe fixed) : 0 Duplicated bytes error (maybe fixed) : 0 Inconsistency in error sectors : 0

Track 04 Filename : /Users/joel/freshly_transcoded/The Great Jazz Trio/1987 - Standard Collection [FLAC]/04 - Someone to Watch Over Me.flac

CRC32 hash (test run) : F6D1EC30 CRC32 hash : F6D1EC30 CRC32 hash (skip zero) : 2C27FEA5 AccurateRip signature : 3EB29A25 ->Track not present in AccurateRip database. Statistics Read error : 0 Skipped (treated as error) : 0 Edge jitter error (maybe fixed) : 0 Atom jitter error (maybe fixed) : 0 Drift error (maybe fixed) : 0 Dropped bytes error (maybe fixed) : 0 Duplicated bytes error (maybe fixed) : 0 Inconsistency in error sectors : 0

Track 05 Filename : /Users/joel/freshly_transcoded/The Great Jazz Trio/1987 - Standard Collection [FLAC]/05 - Isn't it Romantic.flac

CRC32 hash (test run) : 75A2B5FF CRC32 hash : 75A2B5FF CRC32 hash (skip zero) : 5B8B6E27 AccurateRip signature : 0C6F1FED ->Track not present in AccurateRip database. Statistics Read error : 0 Skipped (treated as error) : 0 Edge jitter error (maybe fixed) : 0 Atom jitter error (maybe fixed) : 0 Drift error (maybe fixed) : 0 Dropped bytes error (maybe fixed) : 0 Duplicated bytes error (maybe fixed) : 0 Inconsistency in error sectors : 0

Track 06 Filename : /Users/joel/freshly_transcoded/The Great Jazz Trio/1987 - Standard Collection [FLAC]/06 - Embraceable You.flac

CRC32 hash (test run) : 92C80638 CRC32 hash : 92C80638 CRC32 hash (skip zero) : BEE5C9F5 AccurateRip signature : CFFD8AA3 ->Track not present in AccurateRip database. Statistics Read error : 0 Skipped (treated as error) : 0 Edge jitter error (maybe fixed) : 0 Atom jitter error (maybe fixed) : 0 Drift error (maybe fixed) : 0 Dropped bytes error (maybe fixed) : 0 Duplicated bytes error (maybe fixed) : 0 Inconsistency in error sectors : 0

Track 07 Filename : /Users/joel/freshly_transcoded/The Great Jazz Trio/1987 - Standard Collection [FLAC]/07 - In a Sentimental Mood.flac

CRC32 hash (test run) : 75E714B9 CRC32 hash : 75E714B9 CRC32 hash (skip zero) : F0CCCB57 AccurateRip signature : 68C2FC18 ->Track not present in AccurateRip database. Statistics Read error : 0 Skipped (treated as error) : 0 Edge jitter error (maybe fixed) : 0 Atom jitter error (maybe fixed) : 0 Drift error (maybe fixed) : 0 Dropped bytes error (maybe fixed) : 0 Duplicated bytes error (maybe fixed) : 0 Inconsistency in error sectors : 0

Track 08 Filename : /Users/joel/freshly_transcoded/The Great Jazz Trio/1987 - Standard Collection [FLAC]/08 - Satin Doll.flac

CRC32 hash (test run) : 230B6169 CRC32 hash : 230B6169 CRC32 hash (skip zero) : 12620145 AccurateRip signature : F5B9123A ->Track not present in AccurateRip database. Statistics Read error : 0 Skipped (treated as error) : 0 Edge jitter error (maybe fixed) : 0 Atom jitter error (maybe fixed) : 0 Drift error (maybe fixed) : 0 Dropped bytes error (maybe fixed) : 0 Duplicated bytes error (maybe fixed) : 0 Inconsistency in error sectors : 0

Track 09 Filename : /Users/joel/freshly_transcoded/The Great Jazz Trio/1987 - Standard Collection [FLAC]/09 - Lush Life.flac

CRC32 hash (test run) : 16EBB109 CRC32 hash : 16EBB109 CRC32 hash (skip zero) : FB4D74B5 AccurateRip signature : A66C5BD4 ->Track not present in AccurateRip database. Statistics Read error : 0 Skipped (treated as error) : 0 Edge jitter error (maybe fixed) : 0 Atom jitter error (maybe fixed) : 0 Drift error (maybe fixed) : 0 Dropped bytes error (maybe fixed) : 0 Duplicated bytes error (maybe fixed) : 0 Inconsistency in error sectors : 0

Track 10 Filename : /Users/joel/freshly_transcoded/The Great Jazz Trio/1987 - Standard Collection [FLAC]/10 - Sophisticated Lady.flac

CRC32 hash (test run) : 336FC277 CRC32 hash : 336FC277 CRC32 hash (skip zero) : 98945495 AccurateRip signature : 31726545 ->Track not present in AccurateRip database. Statistics Read error : 0 Skipped (treated as error) : 0 Edge jitter error (maybe fixed) : 0 Atom jitter error (maybe fixed) : 0 Drift error (maybe fixed) : 0 Dropped bytes error (maybe fixed) : 0 Duplicated bytes error (maybe fixed) : 0 Inconsistency in error sectors : 0

Track 11 Filename : /Users/joel/freshly_transcoded/The Great Jazz Trio/1987 - Standard Collection [FLAC]/11 - Take the "A" Train.flac

CRC32 hash (test run) : 1E232463 CRC32 hash : 1E232463 CRC32 hash (skip zero) : 43511824 AccurateRip signature : E56337E1 ->Track not present in AccurateRip database. Statistics Read error : 0 Skipped (treated as error) : 0 Edge jitter error (maybe fixed) : 0 Atom jitter error (maybe fixed) : 0 Drift error (maybe fixed) : 0 Dropped bytes error (maybe fixed) : 0 Duplicated bytes error (maybe fixed) : 0 Inconsistency in error sectors : 0

Track 12 Filename : /Users/joel/freshly_transcoded/The Great Jazz Trio/1987 - Standard Collection [FLAC]/12 - Caravan.flac

CRC32 hash (test run) : 612F1E18 CRC32 hash : 612F1E18 CRC32 hash (skip zero) : 8186188B AccurateRip signature : 8ADD06CE ->Track not present in AccurateRip database. Statistics Read error : 0 Skipped (treated as error) : 0 Edge jitter error (maybe fixed) : 0 Atom jitter error (maybe fixed) : 0 Drift error (maybe fixed) : 0 Dropped bytes error (maybe fixed) : 0 Duplicated bytes error (maybe fixed) : 0 Inconsistency in error sectors : 0

Track 13 Filename : /Users/joel/freshly_transcoded/The Great Jazz Trio/1987 - Standard Collection [FLAC]/13 - Blue Monk.flac

CRC32 hash (test run) : 858A39F4 CRC32 hash : 858A39F4 CRC32 hash (skip zero) : D4952B1C AccurateRip signature : 16AFC5DA ->Track not present in AccurateRip database. Statistics Read error : 0 Skipped (treated as error) : 0 Edge jitter error (maybe fixed) : 0 Atom jitter error (maybe fixed) : 0 Drift error (maybe fixed) : 0 Dropped bytes error (maybe fixed) : 0 Duplicated bytes error (maybe fixed) : 0 Inconsistency in error sectors : 0

Track 14 Filename : /Users/joel/freshly_transcoded/The Great Jazz Trio/1987 - Standard Collection [FLAC]/14 - Ruby Dear.flac

CRC32 hash (test run) : 0F3B6252 CRC32 hash : 0F3B6252 CRC32 hash (skip zero) : 2C545B6F AccurateRip signature : 3EEF7860 ->Track not present in AccurateRip database. Statistics Read error : 0 Skipped (treated as error) : 0 Edge jitter error (maybe fixed) : 0 Atom jitter error (maybe fixed) : 0 Drift error (maybe fixed) : 0 Dropped bytes error (maybe fixed) : 0 Duplicated bytes error (maybe fixed) : 0 Inconsistency in error sectors : 0

Track 15 Filename : /Users/joel/freshly_transcoded/The Great Jazz Trio/1987 - Standard Collection [FLAC]/15 - Monk's Dream.flac

CRC32 hash (test run) : E2717E70 CRC32 hash : E2717E70 CRC32 hash (skip zero) : 0FC4DA22 AccurateRip signature : 2505085E ->Track not present in AccurateRip database. Statistics Read error : 0 Skipped (treated as error) : 0 Edge jitter error (maybe fixed) : 0 Atom jitter error (maybe fixed) : 0 Drift error (maybe fixed) : 0 Dropped bytes error (maybe fixed) : 0 Duplicated bytes error (maybe fixed) : 0 Inconsistency in error sectors : 0

Track 16 Filename : /Users/joel/freshly_transcoded/The Great Jazz Trio/1987 - Standard Collection [FLAC]/16 - Monk's Mood.flac

CRC32 hash (test run) : 4B787E5E CRC32 hash : 4B787E5E CRC32 hash (skip zero) : 64DF3575 AccurateRip signature : E4F912E9 ->Track not present in AccurateRip database. Statistics Read error : 0 Skipped (treated as error) : 0 Edge jitter error (maybe fixed) : 0 Atom jitter error (maybe fixed) : 0 Drift error (maybe fixed) : 0 Dropped bytes error (maybe fixed) : 0 Duplicated bytes error (maybe fixed) : 0 Inconsistency in error sectors : 0

No errors occurred

End of status report
 
TITLE "Standard Collection"PERFORMER "The Great Jazz Trio"REM DATE 1987FILE "01 - S'Wonderful.wav" WAVE TRACK 01 AUDIO TITLE "S'Wonderful" INDEX 01 00:00:00 TRACK 02 AUDIO TITLE "Autumn in New York" INDEX 00 04:45:68FILE "02 - Autumn in New York.wav" WAVE INDEX 01 00:00:00 TRACK 03 AUDIO TITLE "Our Love is Here to Stay" INDEX 00 04:00:21FILE "03 - Our Love is Here to Stay.wav" WAVE INDEX 01 00:00:00 TRACK 04 AUDIO TITLE "Someone to Watch Over Me" INDEX 00 03:57:36FILE "04 - Someone to Watch Over Me.wav" WAVE INDEX 01 00:00:00 TRACK 05 AUDIO TITLE "Isn't it Romantic" INDEX 00 04:45:74FILE "05 - Isn't it Romantic.wav" WAVE INDEX 01 00:00:00 TRACK 06 AUDIO TITLE "Embraceable You" INDEX 00 04:10:50FILE "06 - Embraceable You.wav" WAVE INDEX 01 00:00:00 TRACK 07 AUDIO TITLE "In a Sentimental Mood" INDEX 00 04:21:14FILE "07 - In a Sentimental Mood.wav" WAVE INDEX 01 00:00:00 TRACK 08 AUDIO TITLE "Satin Doll" INDEX 00 04:53:58FILE "08 - Satin Doll.wav" WAVE INDEX 01 00:00:00 TRACK 09 AUDIO TITLE "Lush Life" INDEX 00 04:14:33FILE "09 - Lush Life.wav" WAVE INDEX 01 00:00:00 TRACK 10 AUDIO TITLE "Sophisticated Lady" INDEX 00 03:28:61FILE "10 - Sophisticated Lady.wav" WAVE INDEX 01 00:00:00 TRACK 11 AUDIO TITLE "Take the "A" Train" INDEX 00 04:55:58FILE "11 - Take the "A" Train.wav" WAVE INDEX 01 00:00:00 TRACK 12 AUDIO TITLE "Caravan" INDEX 00 03:38:03FILE "12 - Caravan.wav" WAVE INDEX 01 00:00:00 TRACK 13 AUDIO TITLE "Blue Monk" INDEX 00 04:07:19FILE "13 - Blue Monk.wav" WAVE INDEX 01 00:00:00 TRACK 14 AUDIO TITLE "Ruby Dear" INDEX 00 05:52:60FILE "14 - Ruby Dear.wav" WAVE INDEX 01 00:00:00 TRACK 15 AUDIO TITLE "Monk's Dream" INDEX 00 05:01:35FILE "15 - Monk's Dream.wav" WAVE INDEX 01 00:00:00 TRACK 16 AUDIO TITLE "Monk's Mood" INDEX 00 04:16:34FILE "16 - Monk's Mood.wav" WAVE INDEX 01 00:00:00
 
AUDIOCHECKER v1.2 - by Dester - opdester@freemail.hu~~~~~~~~~~~~~~~~~

01 -===- C:\mus!c\01. Jazz\Jones, Hank\1987 - GJT - Standard Collection\01 - S'Wonderful.flac Extracted successfully Conclusion: This track looks like CDDA with probability 99%

02 -===- C:\mus!c\01. Jazz\Jones, Hank\1987 - GJT - Standard Collection\02 - Autumn in New York.flac Extracted successfully Conclusion: This track looks like CDDA with probability 100%

03 -===- C:\mus!c\01. Jazz\Jones, Hank\1987 - GJT - Standard Collection\03 - Our Love is Here to Stay.flac Extracted successfully Conclusion: This track looks like CDDA with probability 100%

04 -===- C:\mus!c\01. Jazz\Jones, Hank\1987 - GJT - Standard Collection\04 - Someone to Watch Over Me.flac Extracted successfully Conclusion: This track looks like CDDA with probability 100%

05 -===- C:\mus!c\01. Jazz\Jones, Hank\1987 - GJT - Standard Collection\05 - Isn't it Romantic.flac Extracted successfully Conclusion: This track looks like CDDA with probability 100%

06 -===- C:\mus!c\01. Jazz\Jones, Hank\1987 - GJT - Standard Collection\06 - Embraceable You.flac Extracted successfully Conclusion: This track looks like CDDA with probability 100%

07 -===- C:\mus!c\01. Jazz\Jones, Hank\1987 - GJT - Standard Collection\07 - In a Sentimental Mood.flac Extracted successfully Conclusion: This track looks like CDDA with probability 100%

08 -===- C:\mus!c\01. Jazz\Jones, Hank\1987 - GJT - Standard Collection\08 - Satin Doll.flac Extracted successfully Conclusion: This track looks like CDDA with probability 100%

09 -===- C:\mus!c\01. Jazz\Jones, Hank\1987 - GJT - Standard Collection\09 - Lush Life.flac Extracted successfully Conclusion: This track looks like CDDA with probability 99%

10 -===- C:\mus!c\01. Jazz\Jones, Hank\1987 - GJT - Standard Collection\10 - Sophisticated Lady.flac Extracted successfully Conclusion: This track looks like CDDA with probability 100%

11 -===- C:\mus!c\01. Jazz\Jones, Hank\1987 - GJT - Standard Collection\11 - Take the A Train.flac Extracted successfully Conclusion: This track looks like CDDA with probability 100%

12 -===- C:\mus!c\01. Jazz\Jones, Hank\1987 - GJT - Standard Collection\12 - Caravan.flac Extracted successfully Conclusion: This track looks like CDDA with probability 99%

13 -===- C:\mus!c\01. Jazz\Jones, Hank\1987 - GJT - Standard Collection\13 - Blue Monk.flac Extracted successfully Conclusion: This track looks like CDDA with probability 100%

14 -===- C:\mus!c\01. Jazz\Jones, Hank\1987 - GJT - Standard Collection\14 - Ruby Dear.flac Extracted successfully Conclusion: This track looks like CDDA with probability 99%

15 -===- C:\mus!c\01. Jazz\Jones, Hank\1987 - GJT - Standard Collection\15 - Monk's Dream.flac Extracted successfully Conclusion: This track looks like CDDA with probability 100%

16 -===- C:\mus!c\01. Jazz\Jones, Hank\1987 - GJT - Standard Collection\16 - Monk's Mood.flac Extracted successfully Conclusion: This track looks like CDDA with probability 100%


Трекер:  [ 28-Янв-2012 18:23 ]

  

Скачать .torrent

Размер .torrent файла 15 KB


Размер: 345 MB
Хэш (hash) релиза: 3aa75197b329b0c7ea9a531d1c31a1581ca6f1fc

Еще никто не оставлял запись к записи скачать торрент The Great Jazz Trio - Standard Collection - 1987, FLAC . Будь первым!

!Обратная связь