Скачать через торрент музыку Coleman Hawkins - The Hawk Relaxes бесплатно без регистрации torrent

Если у вас наблюдаются проблемы со скриншотами, переходом по ссылками, скачиванием торрентов - проблемы в блокировщике рекламы AdBlock. #хорошегоДня!


Статистика раздачи
Размер:  222 MB   |    Зарегистрирован:  5 лет 8 месяцев   |    .torrent скачан:  38 раз   |   
Раздают:  1  
   
Загрузка...
 
Автор Сообщение

Umakiro

avatar Umakiro


Coleman Hawkins - The Hawk Relaxes
Жанр: Cool / Bop / Tenor Sax
Год выпуска диска: 2006
Производитель диска: Prestige/Moodville / Concord (PRCD-8106-2 / MV-15)
Аудио кодек: FLAC
Тип рипа: tracks+.cue
Битрейт аудио: lossless
Продолжительность: 0:37:19
Источник: AvaxHome / ruskaval
Треклист:
01. I'll Never Be The Same (6:11)
02. When Day Is Done (4:28)
03. Under A Blanket Of Blue (4:39)
04. More Than You Know (4:12)
05. Moonglow (6:00)
06. Just A Gigolo (5:04)
07. Speak Low (6:44)

Coleman Hawkins - tenor saxophone
Ronnel Bright - piano
Kenny Burrell - guitar
Ron Carter - bass
Andrew Cyrille - drums

Recorded at Van Gelder Studio, Englewood Cliffs, NJ; February 28, 1961
 
Exact Audio Copy V0.99 prebeta 5 from 4. May 2009

EAC extraction logfile from 2. August 2010, 16:22

Coleman Hawkins / The Hawk Relaxes

Used drive : TSSTcorpCD/DVDW TS-H552L Adapter: 3 ID: 0

Read mode : SecureUtilize accurate stream : YesDefeat audio cache : YesMake use of C2 pointers : No

Read offset correction : 6Overread into Lead-In and Lead-Out : NoFill up missing offset samples with silence : YesDelete leading and trailing silent blocks : NoNull samples used in CRC calculations : YesUsed interface : Native Win32 interface for Win NT & 2000Gap handling : Appended to previous track

Used output format : User Defined EncoderSelected bitrate : 1024 kBit/sQuality : HighAdd ID3 tag : NoCommand line compressor : C:\Program Files\FLAC\flac.exeAdditional command line options : -6 -V -T "ARTIST=%a" -T "TITLE=%t" -T "ALBUM=%g" -T "DATE=%y" -T "TRACKNUMBER=%n" -T "GENRE=%m" -T "COMMENT=EAC FLAC -6" %s

TOC of the extracted CD

Track | Start | Length | Start sector | End sector --------------------------------------------------------- 1 | 0:00.00 | 6:11.37 | 0 | 27861 2 | 6:11.37 | 4:28.14 | 27862 | 47975 3 | 10:39.51 | 4:39.05 | 47976 | 68905 4 | 15:18.56 | 4:12.33 | 68906 | 87838 5 | 19:31.14 | 5:59.55 | 87839 | 114818 6 | 25:30.69 | 5:04.16 | 114819 | 137634 7 | 30:35.10 | 6:44.00 | 137635 | 167934

Track 1

Filename C:\ruskaval\Coleman Hawkins - The Hawk Relaxes (1961) {2006 Prestige Rudy Van Gelder Remaster}\01 - I'll Never Be The Same.wav

Pre-gap length 0:00:02.00

Peak level 97.9 % Track quality 100.0 % Test CRC 5A03C6C7 Copy CRC 5A03C6C7 Accurately ripped (confidence 9) [40EC12A7] Copy OK

Track 2

Filename C:\ruskaval\Coleman Hawkins - The Hawk Relaxes (1961) {2006 Prestige Rudy Van Gelder Remaster}\02 - When Day Is Done.wav

Pre-gap length 0:00:02.47

Peak level 95.5 % Track quality 100.0 % Test CRC 51CB6D98 Copy CRC 51CB6D98 Accurately ripped (confidence 9) [FB60ED44] Copy OK

Track 3

Filename C:\ruskaval\Coleman Hawkins - The Hawk Relaxes (1961) {2006 Prestige Rudy Van Gelder Remaster}\03 - Under A Blanket Of Blue.wav

Pre-gap length 0:00:03.11

Peak level 97.9 % Track quality 100.0 % Test CRC 5764C0D4 Copy CRC 5764C0D4 Accurately ripped (confidence 9) [3878EECC] Copy OK

Track 4

Filename C:\ruskaval\Coleman Hawkins - The Hawk Relaxes (1961) {2006 Prestige Rudy Van Gelder Remaster}\04 - More Than You Know.wav

Pre-gap length 0:00:02.45

Peak level 97.9 % Track quality 100.0 % Test CRC 56AD6900 Copy CRC 56AD6900 Accurately ripped (confidence 9) [9CD5A4F2] Copy OK

Track 5

Filename C:\ruskaval\Coleman Hawkins - The Hawk Relaxes (1961) {2006 Prestige Rudy Van Gelder Remaster}\05 - Moonglow.wav

Pre-gap length 0:00:03.38

Peak level 97.9 % Track quality 100.0 % Test CRC 52C5ED49 Copy CRC 52C5ED49 Accurately ripped (confidence 9) [F9278617] Copy OK

Track 6

Filename C:\ruskaval\Coleman Hawkins - The Hawk Relaxes (1961) {2006 Prestige Rudy Van Gelder Remaster}\06 - Just A Gigolo.wav

Pre-gap length 0:00:02.43

Peak level 97.9 % Track quality 100.0 % Test CRC 3E8F1DC9 Copy CRC 3E8F1DC9 Accurately ripped (confidence 9) [3F27D7C1] Copy OK

Track 7

Filename C:\ruskaval\Coleman Hawkins - The Hawk Relaxes (1961) {2006 Prestige Rudy Van Gelder Remaster}\07 - Speak Low.wav

Peak level 97.9 % Track quality 100.0 % Test CRC 7841507A Copy CRC 7841507A Accurately ripped (confidence 9) [6C8FEE3A] Copy OK

All tracks accurately ripped

No errors occurred

End of status report
 
REM GENRE JazzREM DATE 1961REM DISCID 4F08BF07REM COMMENT "ExactAudioCopy v0.99pb5"PERFORMER "Coleman Hawkins"TITLE "The Hawk Relaxes"FILE "01 - I'll Never Be The Same.wav" WAVE TRACK 01 AUDIO TITLE "I'll Never Be The Same" PERFORMER "Coleman Hawkins" INDEX 01 00:00:00 TRACK 02 AUDIO TITLE "When Day Is Done" PERFORMER "Coleman Hawkins" INDEX 00 06:08:65FILE "02 - When Day Is Done.wav" WAVE INDEX 01 00:00:00 TRACK 03 AUDIO TITLE "Under A Blanket Of Blue" PERFORMER "Coleman Hawkins" INDEX 00 04:25:03FILE "03 - Under A Blanket Of Blue.wav" WAVE INDEX 01 00:00:00 TRACK 04 AUDIO TITLE "More Than You Know" PERFORMER "Coleman Hawkins" INDEX 00 04:36:35FILE "04 - More Than You Know.wav" WAVE INDEX 01 00:00:00 TRACK 05 AUDIO TITLE "Moonglow" PERFORMER "Coleman Hawkins" INDEX 00 04:08:70FILE "05 - Moonglow.wav" WAVE INDEX 01 00:00:00 TRACK 06 AUDIO TITLE "Just A Gigolo" PERFORMER "Coleman Hawkins" INDEX 00 05:57:12FILE "06 - Just A Gigolo.wav" WAVE INDEX 01 00:00:00FILE "07 - Speak Low.wav" WAVE TRACK 07 AUDIO TITLE "Speak Low" PERFORMER "Coleman Hawkins" INDEX 01 00:00:00


Трекер:  [ 28-Янв-2012 18:22 ]

  

Скачать .torrent

Размер .torrent файла 18 KB


Размер: 222 MB
Хэш (hash) релиза: 9e978bafdc89027ade27896e52aa0a3d38bb6997

Еще никто не оставлял запись к записи скачать торрент Coleman Hawkins - The Hawk Relaxes . Будь первым!

!Обратная связь