Скачать через торрент музыку Bill Charlap & Renee Rosnes - Double Portrait - 2010, FLAC бесплатно без регистрации torrent

Если у вас наблюдаются проблемы со скриншотами, переходом по ссылками, скачиванием торрентов - проблемы в блокировщике рекламы AdBlock. #хорошегоДня!


Статистика раздачи
Размер:  164 MB   |    Зарегистрирован:  5 лет 8 месяцев   |    .torrent скачан:  27 раз   |   
Раздают:  1  
   
Загрузка...
 
Автор Сообщение

Umakiro

avatar Umakiro


Bill Charlap & Renee Rosnes - Double Portrait
Жанр: Post-Bop / Piano Duo
Год выпуска диска: 2010
Производитель диска: Blue Note
Аудио кодек: FLAC
Тип рипа: tracks+.cue
Битрейт аудио: lossless
Продолжительность: 0:50:02
Источник: What.CD / iforgotyourgel
Треклист:
01. Chorinho (3:58)
02. Double Rainbow (5:04)
03. Ana Maria (8:56)
04. The Saros Cycle (4:27)
05. My Man's Gone Now (8:35)
06. Dancing in the Dark (5:05)
07. Inner Urge (5:15)
08. Little Glory (4:15)
09. Never Will I Marry (4:26)

Bill Charlap - piano
Renee Rosnes - piano
 
Exact Audio Copy V0.99 prebeta 5 from 4. May 2009

EAC extraction logfile from 11. August 2010, 20:52

Bill Charlap, Renee Rosnes / Double Portrait

Used drive : Optiarc DVD+-RW AD-7640A Adapter: 0 ID: 0

Read mode : SecureUtilize accurate stream : YesDefeat audio cache : YesMake use of C2 pointers : No

Read offset correction : 6Overread into Lead-In and Lead-Out : NoFill up missing offset samples with silence : YesDelete leading and trailing silent blocks : NoNull samples used in CRC calculations : YesUsed interface : Native Win32 interface for Win NT & 2000Gap handling : Appended to previous track

Used output format : User Defined EncoderSelected bitrate : 768 kBit/sQuality : HighAdd ID3 tag : NoCommand line compressor : C:\Program Files\Exact Audio Copy\FLAC\FLAC.EXEAdditional command line options : -V -8 -T "artist=%a" -T "title=%t" -T "album=%g" -T "date=%y" -T "tracknumber=%n" -T "genre=%m" %s

TOC of the extracted CD

Track | Start | Length | Start sector | End sector --------------------------------------------------------- 1 | 0:00.00 | 3:57.45 | 0 | 17819 2 | 3:57.45 | 5:04.35 | 17820 | 40654 3 | 9:02.05 | 8:55.61 | 40655 | 80840 4 | 17:57.66 | 4:27.05 | 80841 | 100870 5 | 22:24.71 | 8:35.18 | 100871 | 139513 6 | 31:00.14 | 5:04.69 | 139514 | 162382 7 | 36:05.08 | 5:15.06 | 162383 | 186013 8 | 41:20.14 | 4:15.16 | 186014 | 205154 9 | 45:35.30 | 4:26.25 | 205155 | 225129

Track 1

Filename F:\what.cd\Bill Charlap, Renee Rosnes - 2010 - Double Portrait[FLAC]\01 - Chorinho.wav

Pre-gap length 0:00:02.00

Peak level 95.1 % Track quality 100.0 % Test CRC D78B6CE2 Copy CRC D78B6CE2 Track not present in AccurateRip database Copy OK

Track 2

Filename F:\what.cd\Bill Charlap, Renee Rosnes - 2010 - Double Portrait[FLAC]\02 - Double Rainbow.wav

Peak level 98.9 % Track quality 99.9 % Test CRC 53DF3068 Copy CRC 53DF3068 Track not present in AccurateRip database Copy OK

Track 3

Filename F:\what.cd\Bill Charlap, Renee Rosnes - 2010 - Double Portrait[FLAC]\03 - Ana Maria.wav

Peak level 96.6 % Track quality 99.9 % Test CRC BDDA2E7A Copy CRC BDDA2E7A Track not present in AccurateRip database Copy OK

Track 4

Filename F:\what.cd\Bill Charlap, Renee Rosnes - 2010 - Double Portrait[FLAC]\04 - The Saros Cycle.wav

Peak level 98.0 % Track quality 99.9 % Test CRC 09E7F78E Copy CRC 09E7F78E Track not present in AccurateRip database Copy OK

Track 5

Filename F:\what.cd\Bill Charlap, Renee Rosnes - 2010 - Double Portrait[FLAC]\05 - My Man's Gone Now.wav

Peak level 96.6 % Track quality 100.0 % Test CRC 2B8335F9 Copy CRC 2B8335F9 Track not present in AccurateRip database Copy OK

Track 6

Filename F:\what.cd\Bill Charlap, Renee Rosnes - 2010 - Double Portrait[FLAC]\06 - Dancing in the Dark.wav

Peak level 98.1 % Track quality 100.0 % Test CRC 5237E9C6 Copy CRC 5237E9C6 Track not present in AccurateRip database Copy OK

Track 7

Filename F:\what.cd\Bill Charlap, Renee Rosnes - 2010 - Double Portrait[FLAC]\07 - Inner Urge.wav

Pre-gap length 0:00:01.61

Peak level 98.3 % Track quality 100.0 % Test CRC A8BB5032 Copy CRC A8BB5032 Track not present in AccurateRip database Copy OK

Track 8

Filename F:\what.cd\Bill Charlap, Renee Rosnes - 2010 - Double Portrait[FLAC]\08 - Little Glory.wav

Peak level 95.2 % Track quality 100.0 % Test CRC CC1D7FFC Copy CRC CC1D7FFC Track not present in AccurateRip database Copy OK

Track 9

Filename F:\what.cd\Bill Charlap, Renee Rosnes - 2010 - Double Portrait[FLAC]\09 - Never Will I Marry.wav

Peak level 96.6 % Track quality 99.9 % Test CRC 7D10BB8B Copy CRC 7D10BB8B Track not present in AccurateRip database Copy OK

None of the tracks are present in the AccurateRip database

No errors occurred

End of status report
 
REM GENRE "Blue Note"REM DATE 2010REM DISCID 800BB909REM COMMENT "ExactAudioCopy v0.99pb5"PERFORMER "Bill Charlap, Renee Rosnes"TITLE "Double Portrait"FILE "01 - Chorinho.wav" WAVE TRACK 01 AUDIO TITLE "Chorinho" PERFORMER "Bill Charlap, Renee Rosnes" INDEX 01 00:00:00FILE "02 - Double Rainbow.wav" WAVE TRACK 02 AUDIO TITLE "Double Rainbow" PERFORMER "Bill Charlap, Renee Rosnes" INDEX 01 00:00:00FILE "03 - Ana Maria.wav" WAVE TRACK 03 AUDIO TITLE "Ana Maria" PERFORMER "Bill Charlap, Renee Rosnes" INDEX 01 00:00:00FILE "04 - The Saros Cycle.wav" WAVE TRACK 04 AUDIO TITLE "The Saros Cycle" PERFORMER "Bill Charlap, Renee Rosnes" INDEX 01 00:00:00FILE "05 - My Man's Gone Now.wav" WAVE TRACK 05 AUDIO TITLE "My Man's Gone Now" PERFORMER "Bill Charlap, Renee Rosnes" INDEX 01 00:00:00FILE "06 - Dancing in the Dark.wav" WAVE TRACK 06 AUDIO TITLE "Dancing in the Dark" PERFORMER "Bill Charlap, Renee Rosnes" INDEX 01 00:00:00 TRACK 07 AUDIO TITLE "Inner Urge" PERFORMER "Bill Charlap, Renee Rosnes" INDEX 00 05:03:08FILE "07 - Inner Urge.wav" WAVE INDEX 01 00:00:00FILE "08 - Little Glory.wav" WAVE TRACK 08 AUDIO TITLE "Little Glory" PERFORMER "Bill Charlap, Renee Rosnes" INDEX 01 00:00:00FILE "09 - Never Will I Marry.wav" WAVE TRACK 09 AUDIO TITLE "Never Will I Marry" PERFORMER "Bill Charlap, Renee Rosnes" INDEX 01 00:00:00


Трекер:  [ 28-Янв-2012 18:20 ]

  

Скачать .torrent

Размер .torrent файла 14 KB


Размер: 164 MB
Хэш (hash) релиза: 469a98c46aad66034f5ade1957a65a115091711f

Еще никто не оставлял запись к записи скачать торрент Bill Charlap & Renee Rosnes - Double Portrait - 2010, FLAC . Будь первым!

!Обратная связь