Скачать через торрент музыку Bill Evans Trio - Turn Out the Stars: The Final Village Vanguard Recordings бесплатно без регистрации torrent

Если у вас наблюдаются проблемы со скриншотами, переходом по ссылками, скачиванием торрентов - проблемы в блокировщике рекламы AdBlock. #хорошегоДня!


Статистика раздачи
Размер:  1.91 GB   |    Зарегистрирован:  5 лет 8 месяцев   |    .torrent скачан:  33 раза   |   
Раздают:  1  
   
Загрузка...
 
Автор Сообщение

Umakiro

avatar Umakiro


Bill Evans Trio - Turn Out the Stars: The Final Village Vanguard Recordings (June 1980)
Жанр: Post-Bop / Piano
Год выпуска диска: 1996
Производитель диска: Warner (9 45925-2)
Аудио кодек: FLAC
Тип рипа: tracks+.cue
Битрейт аудио: lossless
Продолжительность: 6:38:09
Источник: AvaxHome / mgrcin

Bill Evans - piano
Marc Johnson - bass
Joe LaBarbera - drums

Recorded live at the Village Vanguard, New York, New York from June 4, 5, 6 and 8, 1980

.

.

.

.
.
Треклист:
01. Bill's Hit Tune (7:48)
02. Nardis (15:37)
03. If You Could See Me Now (5:42)
04. The Two Lonely People (7:10)
05. Laurie (6:33)
06. My Romance (7:48)
07. Tiffany (5:42)
08. Like Someone In Love (7:35)
09. Letter To Evan (5:22)
01. Days Of Wine & Roses (9:00)
02. Emily (4:09)
03. My Foolish Heart (4:11)
04. Nardis (16:18)
05. Yet Ne'er Broken (6:37)
06. Quiet Now (5:12)
07. But Not For Me (7:55)
08. Spring Is Here (4:21)
09. Autumn Leaves (5:05)
01. Your Story (3:59)
02. Re: Person I Knew (4:32)
03. Polka Dots & Moonbeams (6:24)
04. The Two Lonely People (7:08)
05. Theme From M*A*S*H (4:08)
06. Tiffany (5:26)
07. Turn Out The Stars (6:21)
08. Laurie (6:24)
09. My Romance (8:20)
10. Knit For Mary F. (6:14)
11. Midnight Mood (5:51)
12. Time Remembered (5:37)
01. Days Of Wine & Roses (8:49)
02. Up With The Lark (5:14)
03. Nardis (15:03)
04. Your Story (3:55)
05. Yet Ne'er Broken (6:49)
06. If You Could See Me Now (6:19)
07. Bill's Hit Tune (7:49)
08. Tiffany (4:57)
09. In Your Own Sweet Way (9:57)
01. I Do It For Your Love (5:17)
02. Five (4:07)
03. Polka Dots & Moonbeams (5:59)
04. Bill's Hit Tune (8:53)
05. Turn Out The Stars (5:53)
06. Days Of Wine & Roses (7:33)
07. But Not For Me (6:57)
08. Knit For Mary F. (6:25)
09. Like Someone In Love (7:34)
10. Quiet Now (5:13)
01. Emily (4:17)
02. I Do It for Your Love (5:37)
03. Nardis (15:55)
04. Knit For Mary F. (6:01)
05. Like Someone In Love (6:22)
06. Letter To Evan (6:56)
07. Minha (3:18)
08. A Sleepin' Bee (4:24)
09. My Romance/Five (10:09)

 
EAC extraction logfile from 13. August 2005, 20:13 for CDBill Evans / Turn Out the Stars - The Final Village Vanguard Sessions (Disc 1)

Used drive : SAMSUNG CDRW/DVD SM-348B Adapter: 1 ID: 1Read mode : Secure with NO C2, accurate stream, disable cacheRead offset correction : 6Overread into Lead-In and Lead-Out : Yes

Used output format : Internal WAV Routines 44.100 Hz; 16 Bit; Stereo

Other options : Fill up missing offset samples with silence : Yes Delete leading and trailing silent blocks : No Native Win32 interface for Win NT & 2000

Track 1 Filename C:\Documents and Settings\SACHIN BHAI\Desktop\BTMUSIC\Bill Evans- Turn Out the Stars- The Final Village Vanguard Recordings(1980)[FLAC]\Disc 1\01 - Bill's Hit Tune.wav

Pre-gap length 0:00:02.42

Peak level 100.0 % Track quality 100.0 % Test CRC 23F2D6CD Copy CRC 23F2D6CD Copy OK

Track 2 Filename C:\Documents and Settings\SACHIN BHAI\Desktop\BTMUSIC\Bill Evans- Turn Out the Stars- The Final Village Vanguard Recordings(1980)[FLAC]\Disc 1\02 - Nardis.wav

Pre-gap length 0:00:00.04

Peak level 100.0 % Track quality 99.9 % Test CRC 3A36FEC3 Copy CRC 3A36FEC3 Copy OK

Track 3 Filename C:\Documents and Settings\SACHIN BHAI\Desktop\BTMUSIC\Bill Evans- Turn Out the Stars- The Final Village Vanguard Recordings(1980)[FLAC]\Disc 1\03 - If You Could See Me Now.wav

Pre-gap length 0:00:00.04

Peak level 100.0 % Track quality 100.0 % Test CRC EF6A069E Copy CRC EF6A069E Copy OK

Track 4 Filename C:\Documents and Settings\SACHIN BHAI\Desktop\BTMUSIC\Bill Evans- Turn Out the Stars- The Final Village Vanguard Recordings(1980)[FLAC]\Disc 1\04 - The Two Lonely People.wav

Pre-gap length 0:00:00.02

Peak level 97.0 % Track quality 100.0 % Test CRC 77F6D76A Copy CRC 77F6D76A Copy OK

Track 5 Filename C:\Documents and Settings\SACHIN BHAI\Desktop\BTMUSIC\Bill Evans- Turn Out the Stars- The Final Village Vanguard Recordings(1980)[FLAC]\Disc 1\05 - Laurie.wav

Pre-gap length 0:00:00.02

Peak level 100.0 % Track quality 100.0 % Test CRC 544F177D Copy CRC 544F177D Copy OK

Track 6 Filename C:\Documents and Settings\SACHIN BHAI\Desktop\BTMUSIC\Bill Evans- Turn Out the Stars- The Final Village Vanguard Recordings(1980)[FLAC]\Disc 1\06 - My Romance.wav

Pre-gap length 0:00:00.02

Peak level 95.1 % Track quality 99.9 % Test CRC 16399BA5 Copy CRC 16399BA5 Copy OK

Track 7 Filename C:\Documents and Settings\SACHIN BHAI\Desktop\BTMUSIC\Bill Evans- Turn Out the Stars- The Final Village Vanguard Recordings(1980)[FLAC]\Disc 1\07 - Tiffany.wav

Pre-gap length 0:00:00.04

Peak level 100.0 % Track quality 100.0 % Test CRC 8B11F3D1 Copy CRC 8B11F3D1 Copy OK

Track 8 Filename C:\Documents and Settings\SACHIN BHAI\Desktop\BTMUSIC\Bill Evans- Turn Out the Stars- The Final Village Vanguard Recordings(1980)[FLAC]\Disc 1\08 - Like Someone in Love.wav

Pre-gap length 0:00:00.04

Peak level 99.1 % Track quality 100.0 % Test CRC D1311E70 Copy CRC D1311E70 Copy OK

Track 9 Filename C:\Documents and Settings\SACHIN BHAI\Desktop\BTMUSIC\Bill Evans- Turn Out the Stars- The Final Village Vanguard Recordings(1980)[FLAC]\Disc 1\09 - Letter to Evan.wav

Pre-gap length 0:00:00.02

Peak level 85.2 % Track quality 100.0 % Test CRC 5A6C6898 Copy CRC 5A6C6898 Copy OK

No errors occured

End of status report
 
EAC extraction logfile from 13. August 2005, 21:36 for CDBill Evans / Turn Out the Stars - The Final Village Vanguard Sessions (Disc 2)

Used drive : SAMSUNG CDRW/DVD SM-348B Adapter: 1 ID: 1Read mode : Secure with NO C2, accurate stream, disable cacheRead offset correction : 6Overread into Lead-In and Lead-Out : No

Used output format : Internal WAV Routines 44.100 Hz; 16 Bit; Stereo

Other options : Fill up missing offset samples with silence : Yes Delete leading and trailing silent blocks : No Native Win32 interface for Win NT & 2000

Track 1 Filename C:\Documents and Settings\SACHIN BHAI\Desktop\BTMUSIC\Bill Evans- Turn Out the Stars- The Final Village Vanguard Recordings(1980)[FLAC]\Disc 22\01 - Days of Wine & Roses.wav

Pre-gap length 0:00:02.00

Peak level 88.0 % Track quality 100.0 % Test CRC 2C3F8BE6 Copy CRC 2C3F8BE6 Copy OK

Track 2 Filename C:\Documents and Settings\SACHIN BHAI\Desktop\BTMUSIC\Bill Evans- Turn Out the Stars- The Final Village Vanguard Recordings(1980)[FLAC]\Disc 22\02 - Emily.wav

Peak level 88.9 % Track quality 100.0 % Test CRC 57BF3DA4 Copy CRC 57BF3DA4 Copy OK

Track 3 Filename C:\Documents and Settings\SACHIN BHAI\Desktop\BTMUSIC\Bill Evans- Turn Out the Stars- The Final Village Vanguard Recordings(1980)[FLAC]\Disc 22\03 - My Foolish Heart.wav

Peak level 99.9 % Track quality 100.0 % Test CRC F4352E4B Copy CRC F4352E4B Copy OK

Track 4 Filename C:\Documents and Settings\SACHIN BHAI\Desktop\BTMUSIC\Bill Evans- Turn Out the Stars- The Final Village Vanguard Recordings(1980)[FLAC]\Disc 22\04 - Nardis.wav

Peak level 89.8 % Track quality 100.0 % Test CRC 76AD7E05 Copy CRC 76AD7E05 Copy OK

Track 5 Filename C:\Documents and Settings\SACHIN BHAI\Desktop\BTMUSIC\Bill Evans- Turn Out the Stars- The Final Village Vanguard Recordings(1980)[FLAC]\Disc 22\05 - Yet Ne'er Broken.wav

Peak level 91.8 % Track quality 100.0 % Test CRC 5ED6C963 Copy CRC 5ED6C963 Copy OK

Track 6 Filename C:\Documents and Settings\SACHIN BHAI\Desktop\BTMUSIC\Bill Evans- Turn Out the Stars- The Final Village Vanguard Recordings(1980)[FLAC]\Disc 22\06 - Quiet Now.wav

Peak level 97.6 % Track quality 100.0 % Test CRC 6AD52BC2 Copy CRC 6AD52BC2 Copy OK

Track 7 Filename C:\Documents and Settings\SACHIN BHAI\Desktop\BTMUSIC\Bill Evans- Turn Out the Stars- The Final Village Vanguard Recordings(1980)[FLAC]\Disc 22\07 - But Not for Me.wav

Peak level 95.6 % Track quality 100.0 % Test CRC 21421B2E Copy CRC 21421B2E Copy OK

Track 8 Filename C:\Documents and Settings\SACHIN BHAI\Desktop\BTMUSIC\Bill Evans- Turn Out the Stars- The Final Village Vanguard Recordings(1980)[FLAC]\Disc 22\08 - Spring is Here.wav

Peak level 91.7 % Track quality 100.0 % Test CRC 60DF1EE0 Copy CRC 60DF1EE0 Copy OK

Track 9 Filename C:\Documents and Settings\SACHIN BHAI\Desktop\BTMUSIC\Bill Evans- Turn Out the Stars- The Final Village Vanguard Recordings(1980)[FLAC]\Disc 22\09 - Autumn Leaves.wav

Peak level 100.0 % Track quality 100.0 % Test CRC 50C77B01 Copy CRC 50C77B01 Copy OK

No errors occured

End of status report
 
EAC extraction logfile from 13. August 2005, 22:55 for CDBill Evans / Turn Out the Stars - The Final Village Vanguard Sessions (Disc 3)

Used drive : SAMSUNG CDRW/DVD SM-348B Adapter: 1 ID: 1Read mode : Secure with NO C2, accurate stream, disable cacheRead offset correction : 6Overread into Lead-In and Lead-Out : No

Used output format : Internal WAV Routines 44.100 Hz; 16 Bit; Stereo

Other options : Fill up missing offset samples with silence : Yes Delete leading and trailing silent blocks : No Native Win32 interface for Win NT & 2000

Track 1 Filename C:\Documents and Settings\SACHIN BHAI\Desktop\BTMUSIC\Bill Evans- Turn Out the Stars- The Final Village Vanguard Recordings(1980)[FLAC]\Disc 3\01 - Your Story.wav

Pre-gap length 0:00:02.00

Peak level 100.0 % Track quality 100.0 % Test CRC 2D0E25CD Copy CRC 2D0E25CD Copy OK

Track 2 Filename C:\Documents and Settings\SACHIN BHAI\Desktop\BTMUSIC\Bill Evans- Turn Out the Stars- The Final Village Vanguard Recordings(1980)[FLAC]\Disc 3\02 - Re- Person I Knew.wav

Peak level 99.9 % Track quality 99.9 % Test CRC 25B382DA Copy CRC 25B382DA Copy OK

Track 3 Filename C:\Documents and Settings\SACHIN BHAI\Desktop\BTMUSIC\Bill Evans- Turn Out the Stars- The Final Village Vanguard Recordings(1980)[FLAC]\Disc 3\03 - Polka Dots & Moonbeams.wav

Peak level 95.4 % Track quality 100.0 % Test CRC 42B2626B Copy CRC 42B2626B Copy OK

Track 4 Filename C:\Documents and Settings\SACHIN BHAI\Desktop\BTMUSIC\Bill Evans- Turn Out the Stars- The Final Village Vanguard Recordings(1980)[FLAC]\Disc 3\04 - The Two Lonely People.wav

Peak level 96.0 % Track quality 100.0 % Test CRC A798A8F3 Copy CRC A798A8F3 Copy OK

Track 5 Filename C:\Documents and Settings\SACHIN BHAI\Desktop\BTMUSIC\Bill Evans- Turn Out the Stars- The Final Village Vanguard Recordings(1980)[FLAC]\Disc 3\05 - Theme from MxAxSxH.wav

Peak level 100.0 % Track quality 100.0 % Test CRC E25A207E Copy CRC E25A207E Copy OK

Track 6 Filename C:\Documents and Settings\SACHIN BHAI\Desktop\BTMUSIC\Bill Evans- Turn Out the Stars- The Final Village Vanguard Recordings(1980)[FLAC]\Disc 3\06 - Tiffany.wav

Peak level 82.4 % Track quality 100.0 % Test CRC 46B62E8F Copy CRC 46B62E8F Copy OK

Track 7 Filename C:\Documents and Settings\SACHIN BHAI\Desktop\BTMUSIC\Bill Evans- Turn Out the Stars- The Final Village Vanguard Recordings(1980)[FLAC]\Disc 3\07 - Turn Out the Stars.wav

Peak level 100.0 % Track quality 100.0 % Test CRC 14C9D125 Copy CRC 14C9D125 Copy OK

Track 8 Filename C:\Documents and Settings\SACHIN BHAI\Desktop\BTMUSIC\Bill Evans- Turn Out the Stars- The Final Village Vanguard Recordings(1980)[FLAC]\Disc 3\08 - Laurie.wav

Peak level 94.3 % Track quality 100.0 % Test CRC 46A9DAED Copy CRC 46A9DAED Copy OK

Track 9 Filename C:\Documents and Settings\SACHIN BHAI\Desktop\BTMUSIC\Bill Evans- Turn Out the Stars- The Final Village Vanguard Recordings(1980)[FLAC]\Disc 3\09 - My Romance.wav

Peak level 100.0 % Track quality 100.0 % Test CRC F918954D Copy CRC F918954D Copy OK

Track 10 Filename C:\Documents and Settings\SACHIN BHAI\Desktop\BTMUSIC\Bill Evans- Turn Out the Stars- The Final Village Vanguard Recordings(1980)[FLAC]\Disc 3\10 - Knit for Mary F..wav

Peak level 81.7 % Track quality 100.0 % Test CRC 1B93EBDA Copy CRC 1B93EBDA Copy OK

Track 11 Filename C:\Documents and Settings\SACHIN BHAI\Desktop\BTMUSIC\Bill Evans- Turn Out the Stars- The Final Village Vanguard Recordings(1980)[FLAC]\Disc 3\11 - Midnight Mood.wav

Peak level 100.0 % Track quality 100.0 % Test CRC 16F2DB2B Copy CRC 16F2DB2B Copy OK

Track 12 Filename C:\Documents and Settings\SACHIN BHAI\Desktop\BTMUSIC\Bill Evans- Turn Out the Stars- The Final Village Vanguard Recordings(1980)[FLAC]\Disc 3\12 - Time Remembered.wav

Peak level 99.1 % Track quality 100.0 % Test CRC 236F1CC0 Copy CRC 236F1CC0 Copy OK

No errors occured

End of status report
 
EAC extraction logfile from 13. August 2005, 23:27 for CDBill Evans / Turn Out The Stars - The Final Village Vanguard Sessions (Disc 4 of 6)

Used drive : SAMSUNG CDRW/DVD SM-348B Adapter: 1 ID: 1Read mode : Secure with NO C2, accurate stream, disable cacheRead offset correction : 6Overread into Lead-In and Lead-Out : No

Used output format : Internal WAV Routines 44.100 Hz; 16 Bit; Stereo

Other options : Fill up missing offset samples with silence : Yes Delete leading and trailing silent blocks : No Native Win32 interface for Win NT & 2000

Track 1 Filename C:\Documents and Settings\SACHIN BHAI\Desktop\BTMUSIC\Bill Evans- Turn Out the Stars- The Final Village Vanguard Recordings(1980)[FLAC]\Disc 4\01 - Days of Wine & Roses.wav

Pre-gap length 0:00:02.00

Peak level 100.0 % Track quality 100.0 % Test CRC A815EB2C Copy CRC A815EB2C Copy OK

Track 2 Filename C:\Documents and Settings\SACHIN BHAI\Desktop\BTMUSIC\Bill Evans- Turn Out the Stars- The Final Village Vanguard Recordings(1980)[FLAC]\Disc 4\02 - Up With The Lark.wav

Peak level 84.7 % Track quality 100.0 % Test CRC 12F65B40 Copy CRC 12F65B40 Copy OK

Track 3 Filename C:\Documents and Settings\SACHIN BHAI\Desktop\BTMUSIC\Bill Evans- Turn Out the Stars- The Final Village Vanguard Recordings(1980)[FLAC]\Disc 4\03 - Nardis.wav

Peak level 99.3 % Track quality 100.0 % Test CRC 97AB52D7 Copy CRC 97AB52D7 Copy OK

Track 4 Filename C:\Documents and Settings\SACHIN BHAI\Desktop\BTMUSIC\Bill Evans- Turn Out the Stars- The Final Village Vanguard Recordings(1980)[FLAC]\Disc 4\04 - Your Story.wav

Peak level 79.2 % Track quality 100.0 % Test CRC 8BDF4A39 Copy CRC 8BDF4A39 Copy OK

Track 5 Filename C:\Documents and Settings\SACHIN BHAI\Desktop\BTMUSIC\Bill Evans- Turn Out the Stars- The Final Village Vanguard Recordings(1980)[FLAC]\Disc 4\05 - Yet Ne'er Broken.wav

Peak level 100.0 % Track quality 100.0 % Test CRC 1EC7A22B Copy CRC 1EC7A22B Copy OK

Track 6 Filename C:\Documents and Settings\SACHIN BHAI\Desktop\BTMUSIC\Bill Evans- Turn Out the Stars- The Final Village Vanguard Recordings(1980)[FLAC]\Disc 4\06 - If You Could See Me Now.wav

Peak level 93.0 % Track quality 99.9 % Test CRC 7FD84901 Copy CRC 7FD84901 Copy OK

Track 7 Filename C:\Documents and Settings\SACHIN BHAI\Desktop\BTMUSIC\Bill Evans- Turn Out the Stars- The Final Village Vanguard Recordings(1980)[FLAC]\Disc 4\07 - Bill's Hit Tune.wav

Peak level 93.1 % Track quality 100.0 % Test CRC 64B5751D Copy CRC 64B5751D Copy OK

Track 8 Filename C:\Documents and Settings\SACHIN BHAI\Desktop\BTMUSIC\Bill Evans- Turn Out the Stars- The Final Village Vanguard Recordings(1980)[FLAC]\Disc 4\08 - Tiffany.wav

Peak level 74.6 % Track quality 99.9 % Test CRC E77830D0 Copy CRC E77830D0 Copy OK

Track 9 Filename C:\Documents and Settings\SACHIN BHAI\Desktop\BTMUSIC\Bill Evans- Turn Out the Stars- The Final Village Vanguard Recordings(1980)[FLAC]\Disc 4\09 - In Your Own Sweet Way.wav

Peak level 99.6 % Track quality 100.0 % Test CRC 08C55928 Copy CRC 08C55928 Copy OK

No errors occured

End of status report
 
EAC extraction logfile from 13. August 2005, 23:56 for CDBill Evans / Turn Out the Stars - The Final Village Vanguard Sessions (Disc 5)

Used drive : SAMSUNG CDRW/DVD SM-348B Adapter: 1 ID: 1Read mode : Secure with NO C2, accurate stream, disable cacheRead offset correction : 6Overread into Lead-In and Lead-Out : No

Used output format : Internal WAV Routines 44.100 Hz; 16 Bit; Stereo

Other options : Fill up missing offset samples with silence : Yes Delete leading and trailing silent blocks : No Native Win32 interface for Win NT & 2000

Track 1 Filename C:\Documents and Settings\SACHIN BHAI\Desktop\BTMUSIC\Bill Evans- Turn Out the Stars- The Final Village Vanguard Recordings(1980)[FLAC]\Disc 5\01 - I Do It for Your Love.wav

Pre-gap length 0:00:02.00

Peak level 99.1 % Track quality 100.0 % Test CRC 7774A81F Copy CRC 7774A81F Copy OK

Track 2 Filename C:\Documents and Settings\SACHIN BHAI\Desktop\BTMUSIC\Bill Evans- Turn Out the Stars- The Final Village Vanguard Recordings(1980)[FLAC]\Disc 5\02 - Five.wav

Peak level 91.5 % Track quality 99.9 % Test CRC ADB5486C Copy CRC ADB5486C Copy OK

Track 3 Filename C:\Documents and Settings\SACHIN BHAI\Desktop\BTMUSIC\Bill Evans- Turn Out the Stars- The Final Village Vanguard Recordings(1980)[FLAC]\Disc 5\03 - Polka Dots & Moonbeams.wav

Peak level 94.5 % Track quality 100.0 % Test CRC 96C98E4D Copy CRC 96C98E4D Copy OK

Track 4 Filename C:\Documents and Settings\SACHIN BHAI\Desktop\BTMUSIC\Bill Evans- Turn Out the Stars- The Final Village Vanguard Recordings(1980)[FLAC]\Disc 5\04 - Bill's Hit Tune.wav

Peak level 96.7 % Track quality 100.0 % Test CRC A04BFD3C Copy CRC A04BFD3C Copy OK

Track 5 Filename C:\Documents and Settings\SACHIN BHAI\Desktop\BTMUSIC\Bill Evans- Turn Out the Stars- The Final Village Vanguard Recordings(1980)[FLAC]\Disc 5\05 - Turn Out the Stars.wav

Peak level 91.0 % Track quality 100.0 % Test CRC E607C9A7 Copy CRC E607C9A7 Copy OK

Track 6 Filename C:\Documents and Settings\SACHIN BHAI\Desktop\BTMUSIC\Bill Evans- Turn Out the Stars- The Final Village Vanguard Recordings(1980)[FLAC]\Disc 5\06 - Days of Wine & Roses.wav

Peak level 95.0 % Track quality 100.0 % Test CRC FBE78B24 Copy CRC FBE78B24 Copy OK

Track 7 Filename C:\Documents and Settings\SACHIN BHAI\Desktop\BTMUSIC\Bill Evans- Turn Out the Stars- The Final Village Vanguard Recordings(1980)[FLAC]\Disc 5\07 - But Not for Me.wav

Peak level 94.4 % Track quality 99.9 % Test CRC D5464A0B Copy CRC D5464A0B Copy OK

Track 8 Filename C:\Documents and Settings\SACHIN BHAI\Desktop\BTMUSIC\Bill Evans- Turn Out the Stars- The Final Village Vanguard Recordings(1980)[FLAC]\Disc 5\08 - Knit for Mary F..wav

Peak level 99.6 % Track quality 100.0 % Test CRC A6D83320 Copy CRC A6D83320 Copy OK

Track 9 Filename C:\Documents and Settings\SACHIN BHAI\Desktop\BTMUSIC\Bill Evans- Turn Out the Stars- The Final Village Vanguard Recordings(1980)[FLAC]\Disc 5\09 - Like Someone in Love.wav

Peak level 95.1 % Track quality 100.0 % Test CRC 4ABD59C7 Copy CRC 4ABD59C7 Copy OK

Track 10 Filename C:\Documents and Settings\SACHIN BHAI\Desktop\BTMUSIC\Bill Evans- Turn Out the Stars- The Final Village Vanguard Recordings(1980)[FLAC]\Disc 5\10 - Quiet Now.wav

Peak level 97.0 % Track quality 100.0 % Test CRC 2F2DFA8D Copy CRC 2F2DFA8D Copy OK

No errors occured

End of status report
 
EAC extraction logfile from 14. August 2005, 0:37 for CDBill Evans / Turn Out the Stars - The Final Village Vanguard Sessions (Disc 6)

Used drive : SAMSUNG CDRW/DVD SM-348B Adapter: 1 ID: 1Read mode : Secure with NO C2, accurate stream, disable cacheRead offset correction : 6Overread into Lead-In and Lead-Out : No

Used output format : Internal WAV Routines 44.100 Hz; 16 Bit; Stereo

Other options : Fill up missing offset samples with silence : Yes Delete leading and trailing silent blocks : No Native Win32 interface for Win NT & 2000

Track 1 Filename C:\Documents and Settings\SACHIN BHAI\Desktop\BTMUSIC\Bill Evans- Turn Out the Stars- The Final Village Vanguard Recordings(1980)[FLAC]\Disc 6\01 - Emily.wav

Pre-gap length 0:00:02.00

Peak level 96.0 % Track quality 100.0 % Test CRC 8C208FB1 Copy CRC 8C208FB1 Copy OK

Track 2 Filename C:\Documents and Settings\SACHIN BHAI\Desktop\BTMUSIC\Bill Evans- Turn Out the Stars- The Final Village Vanguard Recordings(1980)[FLAC]\Disc 6\02 - I Do it for Your Love.wav

Peak level 99.3 % Track quality 100.0 % Test CRC A0D29845 Copy CRC A0D29845 Copy OK

Track 3 Filename C:\Documents and Settings\SACHIN BHAI\Desktop\BTMUSIC\Bill Evans- Turn Out the Stars- The Final Village Vanguard Recordings(1980)[FLAC]\Disc 6\03 - Nardis.wav

Peak level 99.5 % Track quality 99.9 % Test CRC 6729C923 Copy CRC 6729C923 Copy OK

Track 4 Filename C:\Documents and Settings\SACHIN BHAI\Desktop\BTMUSIC\Bill Evans- Turn Out the Stars- The Final Village Vanguard Recordings(1980)[FLAC]\Disc 6\04 - Knit for Mary F..wav

Peak level 99.8 % Track quality 100.0 % Test CRC 3130D0D9 Copy CRC 3130D0D9 Copy OK

Track 5 Filename C:\Documents and Settings\SACHIN BHAI\Desktop\BTMUSIC\Bill Evans- Turn Out the Stars- The Final Village Vanguard Recordings(1980)[FLAC]\Disc 6\05 - Like Someone in Love.wav

Peak level 90.6 % Track quality 100.0 % Test CRC EDCB1AFC Copy CRC EDCB1AFC Copy OK

Track 6 Filename C:\Documents and Settings\SACHIN BHAI\Desktop\BTMUSIC\Bill Evans- Turn Out the Stars- The Final Village Vanguard Recordings(1980)[FLAC]\Disc 6\06 - Letter to Evan.wav

Peak level 80.3 % Track quality 100.0 % Test CRC 0257EED4 Copy CRC 0257EED4 Copy OK

Track 7 Filename C:\Documents and Settings\SACHIN BHAI\Desktop\BTMUSIC\Bill Evans- Turn Out the Stars- The Final Village Vanguard Recordings(1980)[FLAC]\Disc 6\07 - Minha.wav

Peak level 66.7 % Track quality 100.0 % Test CRC D6E71C05 Copy CRC D6E71C05 Copy OK

Track 8 Filename C:\Documents and Settings\SACHIN BHAI\Desktop\BTMUSIC\Bill Evans- Turn Out the Stars- The Final Village Vanguard Recordings(1980)[FLAC]\Disc 6\08 - A Sleepin' Bee.wav

Peak level 82.1 % Track quality 99.9 % Test CRC 7E83FB8B Copy CRC 7E83FB8B Copy OK

Track 9 Filename C:\Documents and Settings\SACHIN BHAI\Desktop\BTMUSIC\Bill Evans- Turn Out the Stars- The Final Village Vanguard Recordings(1980)[FLAC]\Disc 6\09 - My Romance,Five.wav

Peak level 99.1 % Track quality 100.0 % Test CRC 9C547AF1 Copy CRC 9C547AF1 Copy OK

No errors occured

End of status report
 
REM GENRE JazzREM DATE 1980REM DISCID 7D103D09REM COMMENT "ExactAudioCopy v0.95b2"PERFORMER "Bill Evans"TITLE "Turn Out the Stars - The Final Village Vanguard Sessions (Disc 1)"FILE "01 - Bill's Hit Tune.wav" WAVE TRACK 01 AUDIO TITLE "Bill's Hit Tune" PERFORMER "Bill Evans" PREGAP 00:00:32 INDEX 01 00:00:00 TRACK 02 AUDIO TITLE "Nardis" PERFORMER "Bill Evans" INDEX 00 07:47:55FILE "02 - Nardis.wav" WAVE INDEX 01 00:00:00 TRACK 03 AUDIO TITLE "If You Could See Me Now" PERFORMER "Bill Evans" INDEX 00 15:37:02FILE "03 - If You Could See Me Now.wav" WAVE INDEX 01 00:00:00 TRACK 04 AUDIO TITLE "The Two Lonely People" PERFORMER "Bill Evans" INDEX 00 05:42:10FILE "04 - The Two Lonely People.wav" WAVE INDEX 01 00:00:00 TRACK 05 AUDIO TITLE "Laurie" PERFORMER "Bill Evans" INDEX 00 07:10:18FILE "05 - Laurie.wav" WAVE INDEX 01 00:00:00 TRACK 06 AUDIO TITLE "My Romance" PERFORMER "Bill Evans" INDEX 00 06:32:63FILE "06 - My Romance.wav" WAVE INDEX 01 00:00:00 TRACK 07 AUDIO TITLE "Tiffany" PERFORMER "Bill Evans" INDEX 00 07:47:60FILE "07 - Tiffany.wav" WAVE INDEX 01 00:00:00 TRACK 08 AUDIO TITLE "Like Someone in Love" PERFORMER "Bill Evans" INDEX 00 05:41:57FILE "08 - Like Someone in Love.wav" WAVE INDEX 01 00:00:00 TRACK 09 AUDIO TITLE "Letter to Evan" PERFORMER "Bill Evans" INDEX 00 07:34:70FILE "09 - Letter to Evan.wav" WAVE INDEX 01 00:00:00
 
REM GENRE JazzREM DATE 1980REM DISCID 670EB709REM COMMENT "ExactAudioCopy v0.95b2"PERFORMER "Bill Evans"TITLE "Turn Out the Stars - The Final Village Vanguard Sessions (Disc 2)"FILE "01 - Days of Wine & Roses.wav" WAVE TRACK 01 AUDIO TITLE "Days of Wine & Roses" PERFORMER "Bill Evans" INDEX 01 00:00:00FILE "02 - Emily.wav" WAVE TRACK 02 AUDIO TITLE "Emily" PERFORMER "Bill Evans" INDEX 01 00:00:00FILE "03 - My Foolish Heart.wav" WAVE TRACK 03 AUDIO TITLE "My Foolish Heart" PERFORMER "Bill Evans" INDEX 01 00:00:00FILE "04 - Nardis.wav" WAVE TRACK 04 AUDIO TITLE "Nardis" PERFORMER "Bill Evans" INDEX 01 00:00:00FILE "05 - Yet Ne'er Broken.wav" WAVE TRACK 05 AUDIO TITLE "Yet Ne'er Broken" PERFORMER "Bill Evans" INDEX 01 00:00:00FILE "06 - Quiet Now.wav" WAVE TRACK 06 AUDIO TITLE "Quiet Now" PERFORMER "Bill Evans" INDEX 01 00:00:00FILE "07 - But Not for Me.wav" WAVE TRACK 07 AUDIO TITLE "But Not for Me" PERFORMER "Bill Evans" INDEX 01 00:00:00FILE "08 - Spring is Here.wav" WAVE TRACK 08 AUDIO TITLE "Spring is Here" PERFORMER "Bill Evans" INDEX 01 00:00:00FILE "09 - Autumn Leaves.wav" WAVE TRACK 09 AUDIO TITLE "Autumn Leaves" PERFORMER "Bill Evans" INDEX 01 00:00:00
 
REM GENRE JazzREM DATE 1980REM DISCID BB107F0CREM COMMENT "ExactAudioCopy v0.95b2"PERFORMER "Bill Evans"TITLE "Turn Out the Stars - The Final Village Vanguard Sessions (Disc 3)"FILE "01 - Your Story.wav" WAVE TRACK 01 AUDIO TITLE "Your Story" PERFORMER "Bill Evans" INDEX 01 00:00:00FILE "02 - Re- Person I Knew.wav" WAVE TRACK 02 AUDIO TITLE "Re: Person I Knew" PERFORMER "Bill Evans" INDEX 01 00:00:00FILE "03 - Polka Dots & Moonbeams.wav" WAVE TRACK 03 AUDIO TITLE "Polka Dots & Moonbeams" PERFORMER "Bill Evans" INDEX 01 00:00:00FILE "04 - The Two Lonely People.wav" WAVE TRACK 04 AUDIO TITLE "The Two Lonely People" PERFORMER "Bill Evans" INDEX 01 00:00:00FILE "05 - Theme from MxAxSxH.wav" WAVE TRACK 05 AUDIO TITLE "Theme from M*A*S*H" PERFORMER "Bill Evans" INDEX 01 00:00:00FILE "06 - Tiffany.wav" WAVE TRACK 06 AUDIO TITLE "Tiffany" PERFORMER "Bill Evans" INDEX 01 00:00:00FILE "07 - Turn Out the Stars.wav" WAVE TRACK 07 AUDIO TITLE "Turn Out the Stars" PERFORMER "Bill Evans" INDEX 01 00:00:00FILE "08 - Laurie.wav" WAVE TRACK 08 AUDIO TITLE "Laurie" PERFORMER "Bill Evans" INDEX 01 00:00:00FILE "09 - My Romance.wav" WAVE TRACK 09 AUDIO TITLE "My Romance" PERFORMER "Bill Evans" INDEX 01 00:00:00FILE "10 - Knit for Mary F..wav" WAVE TRACK 10 AUDIO TITLE "Knit for Mary F." PERFORMER "Bill Evans" INDEX 01 00:00:00FILE "11 - Midnight Mood.wav" WAVE TRACK 11 AUDIO TITLE "Midnight Mood" PERFORMER "Bill Evans" INDEX 01 00:00:00FILE "12 - Time Remembered.wav" WAVE TRACK 12 AUDIO TITLE "Time Remembered" PERFORMER "Bill Evans" INDEX 01 00:00:00
 
REM DISCID 8C102209REM COMMENT "ExactAudioCopy v0.95b2"PERFORMER "Bill Evans"TITLE "Turn Out The Stars - The Final Village Vanguard Sessions (Disc 4 of 6)"FILE "01 - Days of Wine & Roses.wav" WAVE TRACK 01 AUDIO TITLE "Days of Wine & Roses" PERFORMER "Bill Evans" INDEX 01 00:00:00FILE "02 - Up With The Lark.wav" WAVE TRACK 02 AUDIO TITLE "Up With The Lark" PERFORMER "Bill Evans" INDEX 01 00:00:00FILE "03 - Nardis.wav" WAVE TRACK 03 AUDIO TITLE "Nardis" PERFORMER "Bill Evans" INDEX 01 00:00:00FILE "04 - Your Story.wav" WAVE TRACK 04 AUDIO TITLE "Your Story" PERFORMER "Bill Evans" INDEX 01 00:00:00FILE "05 - Yet Ne'er Broken.wav" WAVE TRACK 05 AUDIO TITLE "Yet Ne'er Broken" PERFORMER "Bill Evans" INDEX 01 00:00:00FILE "06 - If You Could See Me Now.wav" WAVE TRACK 06 AUDIO TITLE "If You Could See Me Now" PERFORMER "Bill Evans" INDEX 01 00:00:00FILE "07 - Bill's Hit Tune.wav" WAVE TRACK 07 AUDIO TITLE "Bill's Hit Tune" PERFORMER "Bill Evans" INDEX 01 00:00:00FILE "08 - Tiffany.wav" WAVE TRACK 08 AUDIO TITLE "Tiffany" PERFORMER "Bill Evans" INDEX 01 00:00:00FILE "09 - In Your Own Sweet Way.wav" WAVE TRACK 09 AUDIO TITLE "In Your Own Sweet Way" PERFORMER "Bill Evans" INDEX 01 00:00:00
 
REM GENRE JazzREM DATE 1980REM DISCID 830EF70AREM COMMENT "ExactAudioCopy v0.95b2"PERFORMER "Bill Evans"TITLE "Turn Out the Stars - The Final Village Vanguard Sessions (Disc 5)"FILE "01 - I Do It for Your Love.wav" WAVE TRACK 01 AUDIO TITLE "I Do It for Your Love" PERFORMER "Bill Evans" INDEX 01 00:00:00FILE "02 - Five.wav" WAVE TRACK 02 AUDIO TITLE "Five" PERFORMER "Bill Evans" INDEX 01 00:00:00FILE "03 - Polka Dots & Moonbeams.wav" WAVE TRACK 03 AUDIO TITLE "Polka Dots & Moonbeams" PERFORMER "Bill Evans" INDEX 01 00:00:00FILE "04 - Bill's Hit Tune.wav" WAVE TRACK 04 AUDIO TITLE "Bill's Hit Tune" PERFORMER "Bill Evans" INDEX 01 00:00:00FILE "05 - Turn Out the Stars.wav" WAVE TRACK 05 AUDIO TITLE "Turn Out the Stars" PERFORMER "Bill Evans" INDEX 01 00:00:00FILE "06 - Days of Wine & Roses.wav" WAVE TRACK 06 AUDIO TITLE "Days of Wine & Roses" PERFORMER "Bill Evans" INDEX 01 00:00:00FILE "07 - But Not for Me.wav" WAVE TRACK 07 AUDIO TITLE "But Not for Me" PERFORMER "Bill Evans" INDEX 01 00:00:00FILE "08 - Knit for Mary F..wav" WAVE TRACK 08 AUDIO TITLE "Knit for Mary F." PERFORMER "Bill Evans" INDEX 01 00:00:00FILE "09 - Like Someone in Love.wav" WAVE TRACK 09 AUDIO TITLE "Like Someone in Love" PERFORMER "Bill Evans" INDEX 01 00:00:00FILE "10 - Quiet Now.wav" WAVE TRACK 10 AUDIO TITLE "Quiet Now" PERFORMER "Bill Evans" INDEX 01 00:00:00
 
REM GENRE JazzREM DATE 1980REM DISCID 7B0EC209REM COMMENT "ExactAudioCopy v0.95b2"PERFORMER "Bill Evans"TITLE "Turn Out the Stars - The Final Village Vanguard Sessions (Disc 6)"FILE "01 - Emily.wav" WAVE TRACK 01 AUDIO TITLE "Emily" PERFORMER "Bill Evans" INDEX 01 00:00:00FILE "02 - I Do it for Your Love.wav" WAVE TRACK 02 AUDIO TITLE "I Do it for Your Love" PERFORMER "Bill Evans" INDEX 01 00:00:00FILE "03 - Nardis.wav" WAVE TRACK 03 AUDIO TITLE "Nardis" PERFORMER "Bill Evans" INDEX 01 00:00:00FILE "04 - Knit for Mary F..wav" WAVE TRACK 04 AUDIO TITLE "Knit for Mary F." PERFORMER "Bill Evans" INDEX 01 00:00:00FILE "05 - Like Someone in Love.wav" WAVE TRACK 05 AUDIO TITLE "Like Someone in Love" PERFORMER "Bill Evans" INDEX 01 00:00:00FILE "06 - Letter to Evan.wav" WAVE TRACK 06 AUDIO TITLE "Letter to Evan" PERFORMER "Bill Evans" INDEX 01 00:00:00FILE "07 - Minha.wav" WAVE TRACK 07 AUDIO TITLE "Minha" PERFORMER "Bill Evans" INDEX 01 00:00:00FILE "08 - A Sleepin' Bee.wav" WAVE TRACK 08 AUDIO TITLE "A Sleepin' Bee" PERFORMER "Bill Evans" INDEX 01 00:00:00FILE "09 - My Romance,Five.wav" WAVE TRACK 09 AUDIO TITLE "My Romance/Five" PERFORMER "Bill Evans" INDEX 01 00:00:00


Трекер:  [ 28-Янв-2012 18:19 ]

  

Скачать .torrent

Размер .torrent файла 29 KB


Размер: 1.91 GB
Хэш (hash) релиза: 2da27c7fa538759310e8d31135b261534aa795d0

Еще никто не оставлял запись к записи скачать торрент Bill Evans Trio - Turn Out the Stars: The Final Village Vanguard Recordings . Будь первым!

!Обратная связь