Скачать через торрент музыку Clifford Jordan & Ran Blake - Masters From Different Worlds бесплатно без регистрации torrent

Если у вас наблюдаются проблемы со скриншотами, переходом по ссылками, скачиванием торрентов - проблемы в блокировщике рекламы AdBlock. #хорошегоДня!


Статистика раздачи
Размер:  314 MB   |    Зарегистрирован:  5 лет 8 месяцев   |    .torrent скачан:  38 раз   |   
Раздают:  1  
   
Загрузка...
 
Автор Сообщение

Umakiro

avatar Umakiro


Clifford Jordan & Ran Blake - Masters From Different World)

Жанр: Modern Creative / Tenor Sax / Piano
Год выпуска диска: 1994
Производитель диска: Mapleshade (01732)
Аудио кодек: WAVPack
Тип рипа: image+.cue
Битрейт аудио: lossless
Продолжительность: 1:07:17
Источник: HQShare / Vinyll
Треклист:
01. Something To Live For (9:30)
02. A Touch Of Evil (10:22)
03. Arline (9:24)
04. Laura (2:53)
05. Short Life Of Barbara Monk (8:05)
06. Vanguard (9:01)
07. Julia (4:17)
08. Wives And Lovers (4:47)
09. Doug's Prelude (6:17)
10. Mood Indigo (2:42)

Clifford Jordan - tenor, soprano saxes
Ran Blake - piano
julian Priester - trombone
Windmill - saxophone quartet
Alfredo Mojica - congas
Steve Williams - drums
Clauda Polley - vocals

Recorded at Mapleshade Studio on December 26-30, 1989
 
Exact Audio Copy V0.99 prebeta 3 from 28. July 2007

EAC extraction logfile from 19. December 2008, 22:58

Clifford Jordan & Ran Blake / Masters From Different Worlds

Used drive : ASUS DRW-1814BL Adapter: 1 ID: 0

Read mode : SecureUtilize accurate stream : YesDefeat audio cache : YesMake use of C2 pointers : No

Read offset correction : 6Overread into Lead-In and Lead-Out : NoFill up missing offset samples with silence : YesDelete leading and trailing silent blocks : NoNull samples used in CRC calculations : YesUsed interface : Installed external ASPI interface

Used output format : Internal WAV RoutinesSample format : 44.100 Hz; 16 Bit; Stereo

TOC of the extracted CD

Track | Start | Length | Start sector | End sector --------------------------------------------------------- 1 | 0:00.50 | 9:30.05 | 50 | 42804 2 | 9:30.55 | 10:21.60 | 42805 | 89439 3 | 19:52.40 | 9:23.40 | 89440 | 131704 4 | 29:16.05 | 2:53.30 | 131705 | 144709 5 | 32:09.35 | 8:04.47 | 144710 | 181056 6 | 40:14.07 | 9:00.45 | 181057 | 221601 7 | 49:14.52 | 4:17.15 | 221602 | 240891 8 | 53:31.67 | 4:46.55 | 240892 | 262396 9 | 58:18.47 | 6:16.55 | 262397 | 290651 10 | 64:35.27 | 2:42.63 | 290652 | 302864

Range status and errors

Selected range

Filename E:\Clifford Jordan & Ran Blake - Masters From Different Worlds.wav

Peak level 100.0 % Range quality 99.9 % Copy CRC C28679A1 Copy OK

No errors occurred

AccurateRip summary

Track 1 accurately ripped (confidence 4) [EF31B279]Track 2 accurately ripped (confidence 4) [14B0A86E]Track 3 accurately ripped (confidence 4) [634E119A]Track 4 accurately ripped (confidence 4) [098ECE28]Track 5 accurately ripped (confidence 4) [B51E35F2]Track 6 accurately ripped (confidence 4) [CA4F56CC]Track 7 accurately ripped (confidence 4) [B2CBBCBE]Track 8 accurately ripped (confidence 4) [B824D754]Track 9 accurately ripped (confidence 4) [6DA7D4C1]Track 10 accurately ripped (confidence 4) [EA3FE7C3]

All tracks accurately ripped

End of status report


Трекер:  [ 28-Янв-2012 18:19 ]

  

Скачать .torrent

Размер .torrent файла 13 KB


Размер: 314 MB
Хэш (hash) релиза: 411c98714dde074401b63873e58ad3644477afdd

Еще никто не оставлял запись к записи скачать торрент Clifford Jordan & Ran Blake - Masters From Different Worlds . Будь первым!

!Обратная связь