Скачать через торрент музыку Evan Parker - Time Lapse - 2006, FLAC бесплатно без регистрации torrent

Если у вас наблюдаются проблемы со скриншотами, переходом по ссылками, скачиванием торрентов - проблемы в блокировщике рекламы AdBlock. #хорошегоДня!


Статистика раздачи
Размер:  314 MB   |    Зарегистрирован:  5 лет 8 месяцев   |    .torrent скачан:  34 раза   |   
Раздают:  1  
   
Загрузка...
 
Автор Сообщение

Umakiro

avatar Umakiro


Evan Parker - Time Lapse
Жанр: Free Improvisation / Free-Jazz / Tzadik
Год выпуска диска: 2006
Производитель диска: Tzadik (TZ 8026)
Аудио кодек: FLAC
Тип рипа: tracks+.cue
Битрейт аудио: lossless
Продолжительность: 0:53:40
Источник: AvaxHome / ruskaval
Треклист:
01. Ak-Kor-Deer (4:30)
02. Monkey's Fist (6:46)
03. Threnody for Steve Lacy (2:43)
04. Gees Bend (3:50)
05. Those Doggone Dogon (6:37)
06. Time Lapse (3:25)
07. Pulse and the Circulation of the Blood (3:29)
08. Organ Point (4:10)
09. The Burden of Time (3:37)
10. Alone on a Long Hard Road (10:24)
11. Chorus After Alaric 1 or 2 for Gavin Bryars (4:11)

Evan Parker - saxophone, organ [track #8]

Recorded Ocotober 1996 - June 2001, edited and sequenced June 2006
 
Exact Audio Copy V0.99 prebeta 5 from 4. May 2009

EAC extraction logfile from 9. August 2010, 14:29

Evan Parker / Time Lapse

Used drive : TSSTcorpCD/DVDW TS-H552L Adapter: 3 ID: 0

Read mode : SecureUtilize accurate stream : YesDefeat audio cache : YesMake use of C2 pointers : No

Read offset correction : 6Overread into Lead-In and Lead-Out : NoFill up missing offset samples with silence : YesDelete leading and trailing silent blocks : NoNull samples used in CRC calculations : YesUsed interface : Native Win32 interface for Win NT & 2000Gap handling : Appended to previous track

Used output format : User Defined EncoderSelected bitrate : 1024 kBit/sQuality : HighAdd ID3 tag : NoCommand line compressor : C:\Program Files\FLAC\flac.exeAdditional command line options : -6 -V -T "ARTIST=%a" -T "TITLE=%t" -T "ALBUM=%g" -T "DATE=%y" -T "TRACKNUMBER=%n" -T "GENRE=%m" -T "COMMENT=EAC FLAC -6" %s

TOC of the extracted CD

Track | Start | Length | Start sector | End sector --------------------------------------------------------- 1 | 0:00.00 | 4:29.65 | 0 | 20239 2 | 4:29.65 | 6:45.42 | 20240 | 50656 3 | 11:15.32 | 2:42.41 | 50657 | 62847 4 | 13:57.73 | 3:50.00 | 62848 | 80097 5 | 17:47.73 | 6:36.57 | 80098 | 109854 6 | 24:24.55 | 3:25.12 | 109855 | 125241 7 | 27:49.67 | 3:28.41 | 125242 | 140882 8 | 31:18.33 | 4:10.21 | 140883 | 159653 9 | 35:28.54 | 3:37.02 | 159654 | 175930 10 | 39:05.56 | 10:23.74 | 175931 | 222729 11 | 49:29.55 | 4:10.44 | 222730 | 241523

Track 1

Filename C:\ruskaval\Evan Parker - Time Lapse (2006) {Tzadik}\01 - Ak-Kor-Deer.wav

Pre-gap length 0:00:02.00

Peak level 97.7 % Track quality 100.0 % Test CRC FD532649 Copy CRC FD532649 Accurately ripped (confidence 7) [D5B2BEC4] Copy OK

Track 2

Filename C:\ruskaval\Evan Parker - Time Lapse (2006) {Tzadik}\02 - Monkey's Fist.wav

Pre-gap length 0:00:04.60

Peak level 97.7 % Track quality 100.0 % Test CRC 12305AFB Copy CRC 12305AFB Accurately ripped (confidence 7) [07DF9356] Copy OK

Track 3

Filename C:\ruskaval\Evan Parker - Time Lapse (2006) {Tzadik}\03 - Threnody for Steve Lacy.wav

Pre-gap length 0:00:04.10

Peak level 97.7 % Track quality 100.0 % Test CRC 61676D20 Copy CRC 61676D20 Accurately ripped (confidence 7) [7B4858BB] Copy OK

Track 4

Filename C:\ruskaval\Evan Parker - Time Lapse (2006) {Tzadik}\04 - Gees Bend.wav

Pre-gap length 0:00:06.06

Peak level 97.7 % Track quality 100.0 % Test CRC 98EBF3C4 Copy CRC 98EBF3C4 Accurately ripped (confidence 7) [74869BD9] Copy OK

Track 5

Filename C:\ruskaval\Evan Parker - Time Lapse (2006) {Tzadik}\05 - Those Doggone Dogon.wav

Pre-gap length 0:00:03.10

Peak level 97.7 % Track quality 100.0 % Test CRC D978EE63 Copy CRC D978EE63 Accurately ripped (confidence 7) [9449A7B7] Copy OK

Track 6

Filename C:\ruskaval\Evan Parker - Time Lapse (2006) {Tzadik}\06 - Time Lapse.wav

Pre-gap length 0:00:04.55

Peak level 97.7 % Track quality 100.0 % Test CRC 1ABF0437 Copy CRC 1ABF0437 Accurately ripped (confidence 7) [812FE480] Copy OK

Track 7

Filename C:\ruskaval\Evan Parker - Time Lapse (2006) {Tzadik}\07 - Pulse and the Circulation of the Blood.wav

Pre-gap length 0:00:03.22

Peak level 97.7 % Track quality 99.9 % Test CRC E916E12F Copy CRC E916E12F Accurately ripped (confidence 7) [DBC4BB6D] Copy OK

Track 8

Filename C:\ruskaval\Evan Parker - Time Lapse (2006) {Tzadik}\08 - Organ Point.wav

Pre-gap length 0:00:04.05

Peak level 97.7 % Track quality 100.0 % Test CRC 0F27C24A Copy CRC 0F27C24A Accurately ripped (confidence 7) [78BFA813] Copy OK

Track 9

Filename C:\ruskaval\Evan Parker - Time Lapse (2006) {Tzadik}\09 - The Burden of Time.wav

Pre-gap length 0:00:03.30

Peak level 97.7 % Track quality 100.0 % Test CRC CF1B061A Copy CRC CF1B061A Accurately ripped (confidence 7) [55E347CE] Copy OK

Track 10

Filename C:\ruskaval\Evan Parker - Time Lapse (2006) {Tzadik}\10 - Alone on a Long Hard Road.wav

Pre-gap length 0:00:03.30

Peak level 97.7 % Track quality 100.0 % Test CRC 6E59E4AE Copy CRC 6E59E4AE Accurately ripped (confidence 7) [7BFE765C] Copy OK

Track 11

Filename C:\ruskaval\Evan Parker - Time Lapse (2006) {Tzadik}\11 - Chorus After Alaric 1 or 2 for Gavin Bryars.wav

Peak level 97.7 % Track quality 100.0 % Test CRC 7B3F5F02 Copy CRC 7B3F5F02 Accurately ripped (confidence 7) [AD63A732] Copy OK

All tracks accurately ripped

No errors occurred

End of status report
 
REM GENRE JazzREM DATE 2006REM DISCID 9E0C940BREM COMMENT "ExactAudioCopy v0.99pb5"PERFORMER "Evan Parker"TITLE "Time Lapse"FILE "01 - Ak-Kor-Deer.wav" WAVE TRACK 01 AUDIO TITLE "Ak-Kor-Deer" PERFORMER "Evan Parker" INDEX 01 00:00:00 TRACK 02 AUDIO TITLE "Monkey's Fist" PERFORMER "Evan Parker" INDEX 00 04:25:05FILE "02 - Monkey's Fist.wav" WAVE INDEX 01 00:00:00 TRACK 03 AUDIO TITLE "Threnody for Steve Lacy" PERFORMER "Evan Parker" INDEX 00 06:41:32FILE "03 - Threnody for Steve Lacy.wav" WAVE INDEX 01 00:00:00 TRACK 04 AUDIO TITLE "Gees Bend" PERFORMER "Evan Parker" INDEX 00 02:36:35FILE "04 - Gees Bend.wav" WAVE INDEX 01 00:00:00 TRACK 05 AUDIO TITLE "Those Doggone Dogon" PERFORMER "Evan Parker" INDEX 00 03:46:65FILE "05 - Those Doggone Dogon.wav" WAVE INDEX 01 00:00:00 TRACK 06 AUDIO TITLE "Time Lapse" PERFORMER "Evan Parker" INDEX 00 06:32:02FILE "06 - Time Lapse.wav" WAVE INDEX 01 00:00:00 TRACK 07 AUDIO TITLE "Pulse and the Circulation of the Blood" PERFORMER "Evan Parker" INDEX 00 03:21:65FILE "07 - Pulse and the Circulation of the Blood.wav" WAVE INDEX 01 00:00:00 TRACK 08 AUDIO TITLE "Organ Point" PERFORMER "Evan Parker" INDEX 00 03:24:36FILE "08 - Organ Point.wav" WAVE INDEX 01 00:00:00 TRACK 09 AUDIO TITLE "The Burden of Time" PERFORMER "Evan Parker" INDEX 00 04:06:66FILE "09 - The Burden of Time.wav" WAVE INDEX 01 00:00:00 TRACK 10 AUDIO TITLE "Alone on a Long Hard Road" PERFORMER "Evan Parker" INDEX 00 03:33:47FILE "10 - Alone on a Long Hard Road.wav" WAVE INDEX 01 00:00:00FILE "11 - Chorus After Alaric 1 or 2 for Gavin Bryars.wav" WAVE TRACK 11 AUDIO TITLE "Chorus After Alaric 1 or 2 for Gavin Bryars" PERFORMER "Evan Parker" INDEX 01 00:00:00


Трекер:  [ 28-Янв-2012 18:18 ]

  

Скачать .torrent

Размер .torrent файла 13 KB


Размер: 314 MB
Хэш (hash) релиза: a45c3b1e044c446bdd66091e3e652af4a168f7d7

Еще никто не оставлял запись к записи скачать торрент Evan Parker - Time Lapse - 2006, FLAC . Будь первым!

!Обратная связь