Скачать через торрент музыку George Russell Sextet - Things New: Unissued Concerts 1960 & 1964 - 2007, FLAC бесплатно без регистрации torrent

Если у вас наблюдаются проблемы со скриншотами, переходом по ссылками, скачиванием торрентов - проблемы в блокировщике рекламы AdBlock. #хорошегоДня!


Статистика раздачи
Размер:  249 MB   |    Зарегистрирован:  5 лет 8 месяцев   |    .torrent скачан:  41 раз   |   
Раздают:  1  
   
Загрузка...
 
Автор Сообщение

Umakiro

avatar Umakiro


George Russell Sextet - Things New: Unissued Concerts 1960 & 1964
Жанр: Avant-Garde Jazz / Hard Bop / Third Stream
Год выпуска диска: 2007
Производитель диска: Rare Live Recordings RLP 88630
Аудио кодек: FLAC
Тип рипа: tracks+.cue
Битрейт аудио: lossless
Продолжительность: 1:08:43
Источник: AvaxHome / ruskaval
Треклист:
01. Introduction (1:43)
02. Things New (7:59)
03. Dance Class (3:39)
04. Potting Shed (4:35)
05. Stratusphunk (6:36)
06. The Outer View (9:31)
07. Stratusphunk (7:09)
08. Volupte (12:00)
09. You Are The Sunshine (8:59)
10. Around Midnight (6:34)

George Russell - piano, arranger
with:
#1-5:
Al Kiger - trumpet
Dave Baker - trombone
Dave Young - tenor sax
Chuck Israels - bass
Joe Hunt - drums
David Lahm - replace G.Russell on piano [#4 only]
Recorded at Berkshire Music Barn, Lennox, Massachusetts, September 1, 1960
#6-9:
Don Ellis - trumpet
Dave Baker - trombone
John Gilmore - tenor sax
Steve Swallow - bass
Pete La Roca - drums
Sheila Jordan - vocals [#9 only]
Recorded at Newport Jazz Festival, Newport, R.I., July 1964
#10:
Thad Jones - cornet
Garnett Brown - trombone
Joe Farrell - saxes
Unknown musician - bass
Al Heath - drums
Recorded in Europe, July, 1964
 
Exact Audio Copy V0.99 prebeta 5 from 4. May 2009

EAC extraction logfile from 14. August 2010, 12:17

George Russell Sextet / Things New: Unissued Concerts 1960 & 1964

Used drive : TSSTcorpCD/DVDW TS-H552L Adapter: 3 ID: 0

Read mode : SecureUtilize accurate stream : YesDefeat audio cache : YesMake use of C2 pointers : No

Read offset correction : 6Overread into Lead-In and Lead-Out : NoFill up missing offset samples with silence : YesDelete leading and trailing silent blocks : NoNull samples used in CRC calculations : YesUsed interface : Native Win32 interface for Win NT & 2000Gap handling : Appended to previous track

Used output format : User Defined EncoderSelected bitrate : 1024 kBit/sQuality : HighAdd ID3 tag : NoCommand line compressor : C:\Program Files\FLAC\flac.exeAdditional command line options : -6 -V -T "ARTIST=%a" -T "TITLE=%t" -T "ALBUM=%g" -T "DATE=%y" -T "TRACKNUMBER=%n" -T "GENRE=%m" -T "COMMENT=EAC FLAC -6" %s

TOC of the extracted CD

Track | Start | Length | Start sector | End sector --------------------------------------------------------- 1 | 0:00.00 | 1:42.43 | 0 | 7692 2 | 1:42.43 | 7:58.68 | 7693 | 43610 3 | 9:41.36 | 3:38.66 | 43611 | 60026 4 | 13:20.27 | 4:34.47 | 60027 | 80623 5 | 17:54.74 | 6:35.69 | 80624 | 110317 6 | 24:30.68 | 9:30.57 | 110318 | 153124 7 | 34:01.50 | 7:08.71 | 153125 | 185295 8 | 41:10.46 | 11:59.51 | 185296 | 239271 9 | 53:10.22 | 8:58.41 | 239272 | 279662 10 | 62:08.63 | 6:33.71 | 279663 | 309208

Track 1

Filename C:\ruskaval\George Russell Sextet - Things New. Unissued Concerts 1960 & 1964 {2007 RLR Records}\01 - Introduction.wav

Pre-gap length 0:00:02.00

Peak level 90.5 % Track quality 100.0 % Test CRC D681B8E9 Copy CRC D681B8E9 Accurately ripped (confidence 1) [9032CB91] Copy OK

Track 2

Filename C:\ruskaval\George Russell Sextet - Things New. Unissued Concerts 1960 & 1964 {2007 RLR Records}\02 - Things New.wav

Peak level 100.0 % Track quality 100.0 % Test CRC A7134247 Copy CRC A7134247 Accurately ripped (confidence 1) [B242BF69] Copy OK

Track 3

Filename C:\ruskaval\George Russell Sextet - Things New. Unissued Concerts 1960 & 1964 {2007 RLR Records}\03 - Dance Class.wav

Peak level 100.0 % Track quality 100.0 % Test CRC E4D9B843 Copy CRC E4D9B843 Accurately ripped (confidence 1) [0E7085C5] Copy OK

Track 4

Filename C:\ruskaval\George Russell Sextet - Things New. Unissued Concerts 1960 & 1964 {2007 RLR Records}\04 - Potting Shed.wav

Peak level 87.6 % Track quality 99.9 % Test CRC 6DE90519 Copy CRC 6DE90519 Accurately ripped (confidence 1) [06EEFAD1] Copy OK

Track 5

Filename C:\ruskaval\George Russell Sextet - Things New. Unissued Concerts 1960 & 1964 {2007 RLR Records}\05 - Stratusphunk.wav

Peak level 95.8 % Track quality 100.0 % Test CRC C9A02455 Copy CRC C9A02455 Accurately ripped (confidence 1) [FB8A514F] Copy OK

Track 6

Filename C:\ruskaval\George Russell Sextet - Things New. Unissued Concerts 1960 & 1964 {2007 RLR Records}\06 - The Outer View.wav

Pre-gap length 0:00:01.49

Peak level 82.9 % Track quality 100.0 % Test CRC 0B8C6380 Copy CRC 0B8C6380 Accurately ripped (confidence 1) [9EF036F9] Copy OK

Track 7

Filename C:\ruskaval\George Russell Sextet - Things New. Unissued Concerts 1960 & 1964 {2007 RLR Records}\07 - Stratusphunk.wav

Peak level 84.7 % Track quality 100.0 % Test CRC 2C1037A6 Copy CRC 2C1037A6 Accurately ripped (confidence 1) [F86A261F] Copy OK

Track 8

Filename C:\ruskaval\George Russell Sextet - Things New. Unissued Concerts 1960 & 1964 {2007 RLR Records}\08 - Volupte.wav

Pre-gap length 0:00:01.49

Peak level 86.7 % Track quality 100.0 % Test CRC 5FEF69C1 Copy CRC 5FEF69C1 Accurately ripped (confidence 1) [72E72E72] Copy OK

Track 9

Filename C:\ruskaval\George Russell Sextet - Things New. Unissued Concerts 1960 & 1964 {2007 RLR Records}\09 - You Are The Sunshine.wav

Pre-gap length 0:00:01.49

Peak level 93.2 % Track quality 100.0 % Test CRC 23C402D5 Copy CRC 23C402D5 Accurately ripped (confidence 1) [8D69761E] Copy OK

Track 10

Filename C:\ruskaval\George Russell Sextet - Things New. Unissued Concerts 1960 & 1964 {2007 RLR Records}\10 - Around Midnight.wav

Pre-gap length 0:00:01.49

Peak level 92.6 % Track quality 100.0 % Test CRC C3713466 Copy CRC C3713466 Accurately ripped (confidence 1) [775BE6D6] Copy OK

All tracks accurately ripped

No errors occurred

End of status report
 
REM GENRE JazzREM DATE 2007REM DISCID 71101A0AREM COMMENT "ExactAudioCopy v0.99pb5"PERFORMER "George Russell Sextet"TITLE "Things New: Unissued Concerts 1960 & 1964"FILE "01 - Introduction.wav" WAVE TRACK 01 AUDIO TITLE "Introduction" PERFORMER "George Russell Sextet" INDEX 01 00:00:00FILE "02 - Things New.wav" WAVE TRACK 02 AUDIO TITLE "Things New" PERFORMER "George Russell Sextet" INDEX 01 00:00:00FILE "03 - Dance Class.wav" WAVE TRACK 03 AUDIO TITLE "Dance Class" PERFORMER "George Russell Sextet" INDEX 01 00:00:00FILE "04 - Potting Shed.wav" WAVE TRACK 04 AUDIO TITLE "Potting Shed" PERFORMER "George Russell Sextet" INDEX 01 00:00:00FILE "05 - Stratusphunk.wav" WAVE TRACK 05 AUDIO TITLE "Stratusphunk" PERFORMER "George Russell Sextet" INDEX 01 00:00:00 TRACK 06 AUDIO TITLE "The Outer View" PERFORMER "George Russell Sextet" INDEX 00 06:34:20FILE "06 - The Outer View.wav" WAVE INDEX 01 00:00:00FILE "07 - Stratusphunk.wav" WAVE TRACK 07 AUDIO TITLE "Stratusphunk" PERFORMER "George Russell Sextet" INDEX 01 00:00:00 TRACK 08 AUDIO TITLE "Volupte" PERFORMER "George Russell Sextet" INDEX 00 07:07:22FILE "08 - Volupte.wav" WAVE INDEX 01 00:00:00 TRACK 09 AUDIO TITLE "You Are The Sunshine" PERFORMER "George Russell Sextet" INDEX 00 11:58:02FILE "09 - You Are The Sunshine.wav" WAVE INDEX 01 00:00:00 TRACK 10 AUDIO TITLE "Around Midnight" PERFORMER "George Russell Sextet" INDEX 00 08:56:67FILE "10 - Around Midnight.wav" WAVE INDEX 01 00:00:00


Трекер:  [ 28-Янв-2012 18:18 ]

  

Скачать .torrent

Размер .torrent файла 21 KB


Размер: 249 MB
Хэш (hash) релиза: 5692e89d5f0b0d62e8f0ab8a4d5bcd5645331a11

Еще никто не оставлял запись к записи скачать торрент George Russell Sextet - Things New: Unissued Concerts 1960 & 1964 - 2007, FLAC . Будь первым!

!Обратная связь