Скачать через торрент музыку Anna Estrada - Obsesion - 2009, APE бесплатно без регистрации torrent

Если у вас наблюдаются проблемы со скриншотами, переходом по ссылками, скачиванием торрентов - проблемы в блокировщике рекламы AdBlock. #хорошегоДня!


Статистика раздачи
Размер:  274 MB   |    Зарегистрирован:  5 лет 8 месяцев   |    .torrent скачан:  41 раз   |   
Раздают:  1  
   
Загрузка...
 
Автор Сообщение

Umakiro

avatar Umakiro


Anna Estrada - Obsesión
Жанр: Bossa Nova / Latin Jazz / Vocal Jazz
Год выпуска диска: 2009
Производитель диска: Feral Flight (FFP 002)
Аудио кодек: APE
Тип рипа: image+.cue
Битрейт аудио: lossless
Продолжительность: 0:51:09
Источник: HQShare / JamesBrown
Треклист:
01. La Mentira (5:28)
02. Nature Boy (6:05)
03. Carta Ao Tom 74 (6:15)
04. Obsesion (4:37)
05. Llorona (6:10)
06. Upa Neguinho (4:03)
07. Flor Sin Retono (4:12)
08. Always Something There To Remind Me (4:47)
09. Soledad (3:33)
10. Adeus America (5:59)

Anna Estrada - vocals
Chuck Bennett, Wayne Wallace - trombones
Charlie McCarthy - saxophone
Jonathan Alford - piano
Tommy Kesecher - vibraphone
Damien Masterson - harmonica
Ray Scott - guitar
Alex Baum - bass
Phil Thompson: drums
Michaele Goerlitz - percussion
Raul Ramirez - dumbek and cajon
 
Exact Audio Copy V0.99 prebeta 5 from 4. May 2009

EAC extraction logfile from 9. August 2010, 11:40

Anna Estrada / Obsesion

Used drive : PHILIPS DVDR1648P1 Adapter: 2 ID: 0

Read mode : SecureUtilize accurate stream : YesDefeat audio cache : YesMake use of C2 pointers : No

Read offset correction : 618Overread into Lead-In and Lead-Out : NoFill up missing offset samples with silence : YesDelete leading and trailing silent blocks : NoNull samples used in CRC calculations : YesUsed interface : Native Win32 interface for Win NT & 2000

Used output format : Monkey's Audio Lossless Encoder v3.99 DLLSample format : Fast Lossless Compression

TOC of the extracted CD

Track | Start | Length | Start sector | End sector --------------------------------------------------------- 1 | 0:00.00 | 5:27.54 | 0 | 24578 2 | 5:27.54 | 6:05.21 | 24579 | 51974 3 | 11:33.00 | 6:14.46 | 51975 | 80070 4 | 17:47.46 | 4:37.14 | 80071 | 100859 5 | 22:24.60 | 6:09.50 | 100860 | 128584 6 | 28:34.35 | 4:02.65 | 128585 | 146799 7 | 32:37.25 | 4:12.36 | 146800 | 165735 8 | 36:49.61 | 4:47.24 | 165736 | 187284 9 | 41:37.10 | 3:32.46 | 187285 | 203230 10 | 45:09.56 | 5:58.70 | 203231 | 230150

Range status and errors

Selected range

Filename F:\Anna Estrada - Obsesion.ape

Peak level 98.8 % Range quality 100.0 % Copy CRC 4A24E571 Copy OK

No errors occurred

AccurateRip summary

Track 1 not present in databaseTrack 2 not present in databaseTrack 3 not present in databaseTrack 4 not present in databaseTrack 5 not present in databaseTrack 6 not present in databaseTrack 7 not present in databaseTrack 8 not present in databaseTrack 9 not present in databaseTrack 10 not present in database

None of the tracks are present in the AccurateRip database

End of status report


Трекер:  [ 28-Янв-2012 18:17 ]

  

Скачать .torrent

Размер .torrent файла 11 KB


Размер: 274 MB
Хэш (hash) релиза: 57deb171d39c288669b417b832f4c4547aeb8634

Еще никто не оставлял запись к записи скачать торрент Anna Estrada - Obsesion - 2009, APE . Будь первым!

!Обратная связь