Скачать через торрент музыку New Presentation & Lora Szafran - Youve Changed - 1993, FLAC бесплатно без регистрации torrent

Если у вас наблюдаются проблемы со скриншотами, переходом по ссылками, скачиванием торрентов - проблемы в блокировщике рекламы AdBlock. #хорошегоДня!


Статистика раздачи
Размер:  296 MB   |    Зарегистрирован:  5 лет 8 месяцев   |    .torrent скачан:  28 раз   |   
Раздают:  1  
   
Загрузка...
 
Автор Сообщение

Umakiro

avatar Umakiro


New Presentation & Lora Szafran - You've Changed
Жанр: Vocal Jazz / Post-Bop / Poland
Год выпуска диска: 1993
Производитель диска: Power Bros (00117)
Аудио кодек: FLAC
Тип рипа: image+.cue
Битрейт аудио: lossless
Продолжительность: 0:49:10
Источник: HQShare / SurowyTato
Треклист:
01. Very Early (6:26)
02. What's Love (4:56)
03. Oczekiwanie (Awaiting) (4:22)
04. Right Frog (5:51)
05. You've Changed (2:21)
06. Hay Fever (4:04)
07. My One And Only Love (4:07)
08. Perdido (5:30)
09. Lush Life (6:44)
10. Teach Me Tonight (4:47)

Lora Szafran - vocal
Wojceich Niedziela - piano, leader
Piotr Wojtasik - trumpet, fluehelrgorn
Jacek Niedziela - bass
Adam Buczek - drums

Recorded August 1992 at Radio Studio, Opole, Poland
 
Exact Audio Copy V0.99 prebeta 5 from 4. May 2009

EAC extraction logfile from 15. August 2010, 14:54

New Presentation & Lora Szafran / You've Changed

Used drive : PLEXTOR DVDR PX-810SA Adapter: 1 ID: 0

Read mode : SecureUtilize accurate stream : YesDefeat audio cache : YesMake use of C2 pointers : No

Read offset correction : 48Overread into Lead-In and Lead-Out : NoFill up missing offset samples with silence : YesDelete leading and trailing silent blocks : NoNull samples used in CRC calculations : YesUsed interface : Installed external ASPI interface

Used output format : User Defined EncoderSelected bitrate : 768 kBit/sQuality : HighAdd ID3 tag : NoCommand line compressor : E:\Program Files\Exact Audio Copy\FLAC\FLAC.EXEAdditional command line options : --best -V -T "date=%y" -T "genre=%m" %s

TOC of the extracted CD

Track | Start | Length | Start sector | End sector --------------------------------------------------------- 1 | 0:00.32 | 6:26.23 | 32 | 29004 2 | 6:26.55 | 4:56.37 | 29005 | 51241 3 | 11:23.17 | 4:21.43 | 51242 | 70859 4 | 15:44.60 | 5:51.30 | 70860 | 97214 5 | 21:36.15 | 2:21.00 | 97215 | 107789 6 | 23:57.15 | 4:04.35 | 107790 | 126124 7 | 28:01.50 | 4:07.22 | 126125 | 144671 8 | 32:08.72 | 5:30.35 | 144672 | 169456 9 | 37:39.32 | 6:43.73 | 169457 | 199754 10 | 44:23.30 | 4:46.47 | 199755 | 221251

Range status and errors

Selected range

Filename E:\INCOMING\EAC\New Presentation & Lora Szafran - You've Changed.wav

Peak level 100.0 % Range quality 100.0 % Test CRC 2F0EC2CC Copy CRC 2F0EC2CC Copy OK

No errors occurred

End of status report


Трекер:  [ 28-Янв-2012 18:16 ]

  

Скачать .torrent

Размер .torrent файла 12 KB


Размер: 296 MB
Хэш (hash) релиза: da42054f6dc385674a1ccc618f094876cbe6a191

Еще никто не оставлял запись к записи скачать торрент New Presentation & Lora Szafran - Youve Changed - 1993, FLAC . Будь первым!

!Обратная связь