Скачать через торрент музыку Archie Roach Ruby Hunter бесплатно без регистрации torrent

Если у вас наблюдаются проблемы со скриншотами, переходом по ссылками, скачиванием торрентов - проблемы в блокировщике рекламы AdBlock. #хорошегоДня!


Статистика раздачи
Размер:  430 MB   |    Зарегистрирован:  5 лет 8 месяцев   |    .torrent скачан:  26 раз   |   
Раздают:  1  
   
Загрузка...
 
Автор Сообщение

Umakiro

avatar Umakiro


Archie Roach / Ruby Hunter / Paul Grabowsky / Australian Art Orchestra - Ruby
Жанр: Jazz / Vocal / Folk / Australian
Год выпуска диска: 2006
Производитель диска: aao (not numbered)
Аудио кодек: FLAC
Тип рипа: image+.cue
Битрейт аудио: lossless
Продолжительность: 1:13:46
Источник: HQShare / transgressions
Треклист:
01. A Child Was Born Tonight (6:37)
02. Ngarrindjeri Woman (3:01)
03. Nopun Kurongk (7:24)
04. Hel Up To The Moon (In My Grandfather's Hands) (4:00)
05. Wash My Soul In The River's Flow (6:11)
06. Daisy Chains, String Games And Knuckle Bones (5:54)
07. Took The Children Away (7:04)
08. Coolaman Baby (6:21)
09. Little By Little (6:37)
10. Down City Streets (7:30)
11. Old So & So (7:44)
12. Kura Tungar (5:24)

Archie Roach - vocals, guitar
Ruby Hunter - female vocals, guitar
Paul Grabowsky - piano
Australian Art Orchestra - trumpet, bass, drums, percussion, etc.
 
Exact Audio Copy V0.99 prebeta 5 from 4. May 2009

EAC extraction logfile from 25. February 2010, 18:32

Various / Ruby

Used drive : HL-DT-STDVDRAM GH20NS15 Adapter: 2 ID: 0

Read mode : SecureUtilize accurate stream : YesDefeat audio cache : YesMake use of C2 pointers : No

Read offset correction : 667Overread into Lead-In and Lead-Out : NoFill up missing offset samples with silence : YesDelete leading and trailing silent blocks : NoNull samples used in CRC calculations : YesUsed interface : Native Win32 interface for Win NT & 2000

Used output format : Internal WAV RoutinesSample format : 44.100 Hz; 16 Bit; Stereo

TOC of the extracted CD

Track | Start | Length | Start sector | End sector --------------------------------------------------------- 1 | 0:00.00 | 6:37.12 | 0 | 29786 2 | 6:37.12 | 3:00.40 | 29787 | 43326 3 | 9:37.52 | 7:23.53 | 43327 | 76604 4 | 17:01.30 | 3:59.62 | 76605 | 94591 5 | 21:01.17 | 6:10.55 | 94592 | 122396 6 | 27:11.72 | 5:54.13 | 122397 | 148959 7 | 33:06.10 | 7:03.60 | 148960 | 180744 8 | 40:09.70 | 6:20.65 | 180745 | 209309 9 | 46:30.60 | 6:37.25 | 209310 | 239109 10 | 53:08.10 | 7:30.20 | 239110 | 272879 11 | 60:38.30 | 7:44.10 | 272880 | 307689 12 | 68:22.40 | 5:23.57 | 307690 | 331971

Range status and errors

Selected range

Filename C:\musjk\Various - Ruby.wav

Peak level 100.0 % Range quality 100.0 % Test CRC 387ACC12 Copy CRC 387ACC12 Copy OK

No errors occurred

AccurateRip summary

Track 1 not present in databaseTrack 2 not present in databaseTrack 3 not present in databaseTrack 4 not present in databaseTrack 5 not present in databaseTrack 6 not present in databaseTrack 7 not present in databaseTrack 8 not present in databaseTrack 9 not present in databaseTrack 10 not present in databaseTrack 11 not present in databaseTrack 12 not present in database

None of the tracks are present in the AccurateRip database

End of status report


Трекер:  [ 28-Янв-2012 18:16 ]

  

Скачать .torrent

Размер .torrent файла 17 KB


Размер: 430 MB
Хэш (hash) релиза: 54bf24fb7efd8e87f0330eb8b391fa1a1b7b31d6

Еще никто не оставлял запись к записи скачать торрент Archie Roach Ruby Hunter . Будь первым!

!Обратная связь