Скачать через торрент музыку Judy Holliday & Gerry Mulligan - Holliday With Mulligan бесплатно без регистрации torrent

Если у вас наблюдаются проблемы со скриншотами, переходом по ссылками, скачиванием торрентов - проблемы в блокировщике рекламы AdBlock. #хорошегоДня!


Статистика раздачи
Размер:  165 MB   |    Зарегистрирован:  5 лет 8 месяцев   |    .torrent скачан:  35 раз   |   
Раздают:  1  
   
Загрузка...
 
Автор Сообщение

Umakiro

avatar Umakiro


Judy Holliday & Gerry Mulligan - Holliday With Mulligan
Жанр: Cool / Vocal Jazz / Baritone Sax
Год выпуска диска: 1980
Производитель диска: DRG Records {CDSL 5191}
Аудио кодек: FLAC
Тип рипа: tracks+.cue
Битрейт аудио: lossless
Продолжительность: 0:32:43
Источник: AvaxHome / johan_perez
Треклист:
01. What's the Rush (3:32)
02. Loving You (2:19)
03. Lazy (2:31)
04. It Must Be Christmas (3:04)
05. The Party's Over (2:31)
06. It's Bad For Me (2:16)
07. Supper Time (3:27)
08. Pass That Peace Pipe (3:01)
09. I've Got A Right To Sing the Blues (2:53)
10. Summer's Over (3:51)
11. Blue Prelude (3:18)

Judy Holliday - vocals
Gerry Mulligan - conductor, baritone sax
Bobby Brookmeyer - valve trombone
A Raph - bass trombone
Nick Travis, Don Ferrara, Al De Risi - trumpets
Gunter Schuller, Earl Chapin, Fred Klein - French horns
Walter Levinsky - clarinet, sax
Al Klink - flute, sax
Don Asworth - oboe, sax
Gene Allen - bass clarinet, baritone sax
Bernie Leighton - piano
Bill Crow - bass
Mel Lewis - drums

Recorded April 10-17, 1961 at Oimsted Studios, New York
Original 3-tracks master mixed April, 1980 by Hugh Fordin and Gerry Mulligan
 
EAC extraction logfile from 9. May 2008, 21:14 for CDJudy Holliday & Gerry Mulligan / Holliday With Mulligan

Used drive : HL-DT-STCDRW/DVD GCC4482 Adapter: 1 ID: 0Read mode : Secure with NO C2, accurate stream, disable cacheRead offset correction : 6Overread into Lead-In and Lead-Out : No

Used output format : C:\Eac\Codecs\flac.exe (User Defined Encoder) 320 kBit/s Additional command line options : -8 -V -T "artist=%a" -T "title=%t" -T "album=%g" -T "date=%y" -T "tracknumber=%n" -T "genre=%m" -T "comment=EAC Flac 1.1.2 -8" %s

Other options : Fill up missing offset samples with silence : Yes Delete leading and trailing silent blocks : No Installed external ASPI interface

Track 1 Filename C:\Documents and Settings\tuvim\01 - What's the Rush.wav

Pre-gap length 0:00:02.42

Peak level 69.1 % Track quality 100.0 % Test CRC 9C1FD9A8 Copy CRC 9C1FD9A8 Copy OK

Track 2 Filename C:\Documents and Settings\tuvim\02 - Loving You.wav

Pre-gap length 0:00:04.06

Peak level 84.8 % Track quality 100.0 % Test CRC 0E48E6AD Copy CRC 0E48E6AD Copy OK

Track 3 Filename C:\Documents and Settings\tuvim\03 - Lazy.wav

Pre-gap length 0:00:03.29

Peak level 69.9 % Track quality 100.0 % Test CRC E878B834 Copy CRC E878B834 Copy OK

Track 4 Filename C:\Documents and Settings\tuvim\04 - It Must Be Christmas.wav

Pre-gap length 0:00:02.66

Peak level 79.6 % Track quality 100.0 % Test CRC BCDF639F Copy CRC BCDF639F Copy OK

Track 5 Filename C:\Documents and Settings\tuvim\05 - The Party's Over.wav

Pre-gap length 0:00:02.66

Peak level 61.4 % Track quality 100.0 % Test CRC 81D5081F Copy CRC 81D5081F Copy OK

Track 6 Filename C:\Documents and Settings\tuvim\06 - It's Bad For Me.wav

Pre-gap length 0:00:03.53

Peak level 87.3 % Track quality 100.0 % Test CRC 085A7EDE Copy CRC 085A7EDE Copy OK

Track 7 Filename C:\Documents and Settings\tuvim\07 - Supper Time.wav

Pre-gap length 0:00:03.20

Peak level 72.3 % Track quality 100.0 % Test CRC E9BD0431 Copy CRC E9BD0431 Copy OK

Track 8 Filename C:\Documents and Settings\tuvim\08 - Pass That Peace Pipe.wav

Pre-gap length 0:00:03.13

Peak level 80.5 % Track quality 99.9 % Test CRC EB4789B1 Copy CRC EB4789B1 Copy OK

Track 9 Filename C:\Documents and Settings\tuvim\09 - I've Got A Right To Sing the Blues.wav

Pre-gap length 0:00:02.82

Peak level 82.2 % Track quality 100.0 % Test CRC B1DC5CCD Copy CRC B1DC5CCD Copy OK

Track 10 Filename C:\Documents and Settings\tuvim\10 - Summer's Over.wav

Pre-gap length 0:00:02.76

Peak level 81.2 % Track quality 100.0 % Test CRC 96F22D0F Copy CRC 96F22D0F Copy OK

Track 11 Filename C:\Documents and Settings\tuvim\11 - Blue Prelude.wav

Pre-gap length 0:00:03.56

Peak level 70.8 % Track quality 100.0 % Test CRC 364343E3 Copy CRC 364343E3 Copy OK

No errors occured

End of status report
 
REM GENRE "Jazz Vocals"REM DATE 1961REM DISCID 9B07AB0BREM COMMENT "ExactAudioCopy v0.95b4"PERFORMER "Judy Holliday & Gerry Mulligan"TITLE "Holliday With Mulligan"FILE "01 - What's the Rush.wav" WAVE TRACK 01 AUDIO TITLE "What's the Rush" PERFORMER "Judy Holliday & Gerry Mulligan" PREGAP 00:00:32 INDEX 01 00:00:00 TRACK 02 AUDIO TITLE "Loving You" PERFORMER "Judy Holliday & Gerry Mulligan" INDEX 00 03:27:50FILE "02 - Loving You.wav" WAVE INDEX 01 00:00:00 TRACK 03 AUDIO TITLE "Lazy" PERFORMER "Judy Holliday & Gerry Mulligan" INDEX 00 02:16:08FILE "03 - Lazy.wav" WAVE INDEX 01 00:00:00 TRACK 04 AUDIO TITLE "It Must Be Christmas" PERFORMER "Judy Holliday & Gerry Mulligan" INDEX 00 02:28:28FILE "04 - It Must Be Christmas.wav" WAVE INDEX 01 00:00:00 TRACK 05 AUDIO TITLE "The Party's Over" PERFORMER "Judy Holliday & Gerry Mulligan" INDEX 00 03:01:35FILE "05 - The Party's Over.wav" WAVE INDEX 01 00:00:00 TRACK 06 AUDIO TITLE "It's Bad For Me" PERFORMER "Judy Holliday & Gerry Mulligan" INDEX 00 02:27:35FILE "06 - It's Bad For Me.wav" WAVE INDEX 01 00:00:00 TRACK 07 AUDIO TITLE "Supper Time" PERFORMER "Judy Holliday & Gerry Mulligan" INDEX 00 02:12:60FILE "07 - Supper Time.wav" WAVE INDEX 01 00:00:00 TRACK 08 AUDIO TITLE "Pass That Peace Pipe" PERFORMER "Judy Holliday & Gerry Mulligan" INDEX 00 03:24:25FILE "08 - Pass That Peace Pipe.wav" WAVE INDEX 01 00:00:00 TRACK 09 AUDIO TITLE "I've Got A Right To Sing the Blues" PERFORMER "Judy Holliday & Gerry Mulligan" INDEX 00 02:58:10FILE "09 - I've Got A Right To Sing the Blues.wav" WAVE INDEX 01 00:00:00 TRACK 10 AUDIO TITLE "Summer's Over" PERFORMER "Judy Holliday & Gerry Mulligan" INDEX 00 02:50:03FILE "10 - Summer's Over.wav" WAVE INDEX 01 00:00:00 TRACK 11 AUDIO TITLE "Blue Prelude" PERFORMER "Judy Holliday & Gerry Mulligan" INDEX 00 03:47:18FILE "11 - Blue Prelude.wav" WAVE INDEX 01 00:00:00


Трекер:  [ 28-Янв-2012 18:15 ]

  

Скачать .torrent

Размер .torrent файла 14 KB


Размер: 165 MB
Хэш (hash) релиза: 784ee033285ec122d36fad215d648bcaaa728cb5

Еще никто не оставлял запись к записи скачать торрент Judy Holliday & Gerry Mulligan - Holliday With Mulligan . Будь первым!

!Обратная связь