Скачать через торрент музыку Herbie Mann & The Bill Evans Trio - Nirvana бесплатно без регистрации torrent

Если у вас наблюдаются проблемы со скриншотами, переходом по ссылками, скачиванием торрентов - проблемы в блокировщике рекламы AdBlock. #хорошегоДня!


Статистика раздачи
Размер:  111 MB   |    Зарегистрирован:  5 лет 8 месяцев   |    .torrent скачан:  26 раз   |   
Раздают:  1  
   
Загрузка...
 
Автор Сообщение

Umakiro

avatar Umakiro


Herbie Mann & The Bill Evans Trio - Nirvana
Жанр: Post-Bop / Flute / Piano
Год выпуска диска: 1996
Производитель диска: Atlantic/Rhino {7567-90141-2}
Аудио кодек: FLAC
Тип рипа: image+.cue
Битрейт аудио: lossless
Продолжительность: 0:33:25
Источник: AvaxHome / intothe
Треклист:
01. Nirvana (5:50)
02. Gymnopedie (3:19)
03. I love you (7:06)
04. Willow Weep For Me (5:33)
05. Lover Man (4:51)
06. Cashmere (6:46)

Herbie Mann - flute
Bill Evance - piano
Chuck Esraels - bass
Paul Motian - drums

Recorded in New York City, December 8, 1961 and May 4, 1962

.
.
 
Exact Audio Copy V0.99 prebeta 4 from 23. January 2008

EAC extraction logfile from 30. August 2010, 18:04

Herbie Mann & The Bill Evans Trio / Nirvana

Used drive : _NEC DVD_RW ND-3500AG Adapter: 0 ID: 0

Read mode : SecureUtilize accurate stream : YesDefeat audio cache : YesMake use of C2 pointers : No

Read offset correction : 48Overread into Lead-In and Lead-Out : NoFill up missing offset samples with silence : YesDelete leading and trailing silent blocks : NoNull samples used in CRC calculations : YesUsed interface : Native Win32 interface for Win NT & 2000

Used output format : User Defined EncoderSelected bitrate : 768 kBit/sQuality : HighAdd ID3 tag : NoCommand line compressor : C:\Program Files\Exact Audio Copy\FLAC\FLAC.EXEAdditional command line options : -6 -V -T "ARTIST=%a" -T "TITLE=%t" -T "ALBUM=%g" -T "DATE=%y" -T "TRACKNUMBER=%n" -T "GENRE=%m" -T "COMMENT=%e" %s -o %d

TOC of the extracted CD

Track | Start | Length | Start sector | End sector --------------------------------------------------------- 1 | 0:00.00 | 5:49.70 | 0 | 26244 2 | 5:49.70 | 3:18.67 | 26245 | 41161 3 | 9:08.62 | 7:06.13 | 41162 | 73124 4 | 16:15.00 | 5:33.10 | 73125 | 98109 5 | 21:48.10 | 4:51.22 | 98110 | 119956 6 | 26:39.32 | 6:45.40 | 119957 | 150371

Range status and errors

Selected range

Filename J:\eMusic\Rip\Herbie Mann & The Bill Evans Trio - Nirvana.wav

Peak level 100.0 % Range quality 100.0 % Test CRC 34572E82 Copy CRC 34572E82 Copy OK

No errors occurred

AccurateRip summary

Track 1 accurately ripped (confidence 3) [E2716A67]Track 2 accurately ripped (confidence 3) [C2F66438]Track 3 accurately ripped (confidence 3) [897C7C72]Track 4 accurately ripped (confidence 3) [06DD4434]Track 5 accurately ripped (confidence 3) [1248784B]Track 6 accurately ripped (confidence 3) [F26670F5]

All tracks accurately ripped

End of status report


Трекер:  [ 28-Янв-2012 18:15 ]

  

Скачать .torrent

Размер .torrent файла 18 KB


Размер: 111 MB
Хэш (hash) релиза: 3ae87f0c20445eb5b0934f6fae7f5ff5214bb0f5

Еще никто не оставлял запись к записи скачать торрент Herbie Mann & The Bill Evans Trio - Nirvana . Будь первым!

!Обратная связь