Скачать через торрент музыку Stefon Harris - A Cloud Of Red Dust - 1998, FLAC бесплатно без регистрации torrent

Если у вас наблюдаются проблемы со скриншотами, переходом по ссылками, скачиванием торрентов - проблемы в блокировщике рекламы AdBlock. #хорошегоДня!


Статистика раздачи
Размер:  289 MB   |    Зарегистрирован:  5 лет 8 месяцев   |    .torrent скачан:  31 раз   |   
Раздают:  1  
   
Загрузка...
 
Автор Сообщение

Umakiro

avatar Umakiro


Stefon Harris - A Cloud Of Red Dust
Жанр: Post-Bop / Vibraphone
Год выпуска диска: 1998
Производитель диска: Blue Note/Capitol {7243 8 23487 2 6}
Аудио кодек: FLAC
Тип рипа: tracks+.cue
Битрейт аудио: lossless
Продолжительность: 0:48:40
Источник: What.CD / beaverteeth92
Треклист:
01. Sophistry (5:07)
02. And This Too Shall Pass (8:31)
03. Nature Music (0:57)
04. In The Garden Of Thought (6:01)
05. Drum Storm (0:54)
06. The Prophet (7:07)
07. Sacred Forest (1:28)
08. A Cloud Of Red Dust (5:51)
09. One String Blues (1:36)
10. Jamo (4:52)
11. For You Mom & Dad (6:15)

Stefon Harris - percussion, balafon, vibraphone
Dwayne Burno - bass
Kimati Dinizulu - percussion , harp
June Gardner - vocals
Alvester Garnett - drums
Mulgrew Miller - piano
Jason Moran - piano
Greg Osby - alto sax
Steve Turre - trombone
Kaoru Watanabe - flute
Steve Wilson - alto sax, soprano sax

Recorded October 6 and 7, 1997
 
Exact Audio Copy V0.99 prebeta 3 from 28. July 2007

EAC extraction logfile from 15. May 2010, 23:28

Stefon Harris / A Cloud Of Red Dust

Used drive : MATSHITADVD-RAM UJ-850S Adapter: 0 ID: 0

Read mode : SecureUtilize accurate stream : YesDefeat audio cache : YesMake use of C2 pointers : No

Read offset correction : 102Overread into Lead-In and Lead-Out : NoFill up missing offset samples with silence : YesDelete leading and trailing silent blocks : NoNull samples used in CRC calculations : YesUsed interface : Native Win32 interface for Win NT & 2000Gap handling : Appended to previous track

Used output format : User Defined EncoderSelected bitrate : 128 kBit/sQuality : HighAdd ID3 tag : NoCommand line compressor : C:\Program Files\FLAC\flac.exeAdditional command line options : -V -8 -T "artist=%a" -T "title=%t" -T "album=%g" -T "date=%y" -T "tracknumber=%n" -T "genre=%m" %s

TOC of the extracted CD

Track | Start | Length | Start sector | End sector --------------------------------------------------------- 1 | 0:00.00 | 5:06.67 | 0 | 23016 2 | 5:06.67 | 8:31.15 | 23017 | 61356 3 | 13:38.07 | 0:56.43 | 61357 | 65599 4 | 14:34.50 | 6:01.10 | 65600 | 92684 5 | 20:35.60 | 0:54.02 | 92685 | 96736 6 | 21:29.62 | 7:07.18 | 96737 | 128779 7 | 28:37.05 | 1:27.67 | 128780 | 135371 8 | 30:04.72 | 5:51.28 | 135372 | 161724 9 | 35:56.25 | 1:35.65 | 161725 | 168914 10 | 37:32.15 | 4:52.17 | 168915 | 190831 11 | 42:24.32 | 6:15.30 | 190832 | 218986

Track 1

Filename H:\Rips\01 - Sophistry.wav

Pre-gap length 0:00:02.00

Peak level 98.8 % Track quality 100.0 % Test CRC BA91338D Copy CRC BA91338D Accurately ripped (confidence 5) [D4ED00D1] Copy OK

Track 2

Filename H:\Rips\02 - And This Too Shall Pass.wav

Peak level 98.8 % Track quality 100.0 % Test CRC DDCEA430 Copy CRC DDCEA430 Accurately ripped (confidence 5) [24D7E38A] Copy OK

Track 3

Filename H:\Rips\03 - Nature Music.wav

Peak level 12.3 % Track quality 100.0 % Test CRC B8B30D06 Copy CRC B8B30D06 Accurately ripped (confidence 5) [9D486BE6] Copy OK

Track 4

Filename H:\Rips\04 - In The Garden Of Thought.wav

Peak level 98.8 % Track quality 100.0 % Test CRC D91F81A5 Copy CRC D91F81A5 Accurately ripped (confidence 5) [C6FF8D2B] Copy OK

Track 5

Filename H:\Rips\05 - Drum Storm.wav

Peak level 98.8 % Track quality 100.0 % Test CRC 603E2FCE Copy CRC 603E2FCE Accurately ripped (confidence 5) [4EC49647] Copy OK

Track 6

Filename H:\Rips\06 - The Prophet.wav

Peak level 98.8 % Track quality 100.0 % Test CRC DC974527 Copy CRC DC974527 Accurately ripped (confidence 5) [938DC1D6] Copy OK

Track 7

Filename H:\Rips\07 - Sacred Forest.wav

Peak level 97.8 % Track quality 100.0 % Test CRC 56E578CF Copy CRC 56E578CF Accurately ripped (confidence 5) [91B7E938] Copy OK

Track 8

Filename H:\Rips\08 - A Cloud Of Red Dust.wav

Peak level 98.8 % Track quality 100.0 % Test CRC AA09668C Copy CRC AA09668C Accurately ripped (confidence 5) [5397AF00] Copy OK

Track 9

Filename H:\Rips\09 - One String Blues.wav

Peak level 93.4 % Track quality 100.0 % Test CRC 5F7CDCC3 Copy CRC 5F7CDCC3 Accurately ripped (confidence 5) [0AAD0E98] Copy OK

Track 10

Filename H:\Rips\10 - Jamo.wav

Peak level 98.8 % Track quality 99.9 % Test CRC 5020D036 Copy CRC 5020D036 Accurately ripped (confidence 5) [FDFF6A01] Copy OK

Track 11

Filename H:\Rips\11 - For You Mom & Dad.wav

Peak level 98.8 % Track quality 100.0 % Test CRC B400988F Copy CRC B400988F Accurately ripped (confidence 5) [8828F2C2] Copy OK

All tracks accurately ripped

No errors occurred

End of status report
 
REM GENRE JazzREM DATE 1998REM DISCID 950B670BREM COMMENT "ExactAudioCopy v0.99pb3"PERFORMER "Stefon Harris"TITLE "A Cloud Of Red Dust"FILE "01 - Sophistry.wav" WAVE TRACK 01 AUDIO TITLE "Sophistry" PERFORMER "Stefon Harris" INDEX 01 00:00:00FILE "02 - And This Too Shall Pass.wav" WAVE TRACK 02 AUDIO TITLE "And This Too Shall Pass" PERFORMER "Stefon Harris" INDEX 01 00:00:00FILE "03 - Nature Music.wav" WAVE TRACK 03 AUDIO TITLE "Nature Music" PERFORMER "Stefon Harris" INDEX 01 00:00:00FILE "04 - In The Garden Of Thought.wav" WAVE TRACK 04 AUDIO TITLE "In The Garden Of Thought" PERFORMER "Stefon Harris" INDEX 01 00:00:00FILE "05 - Drum Storm.wav" WAVE TRACK 05 AUDIO TITLE "Drum Storm" PERFORMER "Stefon Harris" INDEX 01 00:00:00FILE "06 - The Prophet.wav" WAVE TRACK 06 AUDIO TITLE "The Prophet" PERFORMER "Stefon Harris" INDEX 01 00:00:00FILE "07 - Sacred Forrest.wav" WAVE TRACK 07 AUDIO TITLE "Sacred Forrest" PERFORMER "Stefon Harris" INDEX 01 00:00:00FILE "08 - A Cloud Of Red Dust.wav" WAVE TRACK 08 AUDIO TITLE "A Cloud Of Red Dust" PERFORMER "Stefon Harris" INDEX 01 00:00:00FILE "09 - One String Blues.wav" WAVE TRACK 09 AUDIO TITLE "One String Blues" PERFORMER "Stefon Harris" INDEX 01 00:00:00FILE "10 - Jamo.wav" WAVE TRACK 10 AUDIO TITLE "Jamo" PERFORMER "Stefon Harris" INDEX 01 00:00:00FILE "11 - For YOu Mom And Dad.wav" WAVE TRACK 11 AUDIO TITLE "For YOu Mom And Dad" PERFORMER "Stefon Harris" INDEX 01 00:00:00


Трекер:  [ 28-Янв-2012 18:14 ]

  

Скачать .torrent

Размер .torrent файла 12 KB


Размер: 289 MB
Хэш (hash) релиза: 2ff46f1ec0b128e292306bb0e4f22df224dc37f0

Еще никто не оставлял запись к записи скачать торрент Stefon Harris - A Cloud Of Red Dust - 1998, FLAC . Будь первым!

!Обратная связь