Скачать через торрент музыку Stefon Harris - Black Action Figure бесплатно без регистрации torrent

Если у вас наблюдаются проблемы со скриншотами, переходом по ссылками, скачиванием торрентов - проблемы в блокировщике рекламы AdBlock. #хорошегоДня!


Статистика раздачи
Размер:  332 MB   |    Зарегистрирован:  5 лет 8 месяцев   |    .torrent скачан:  31 раз   |   
Раздают:  1  
   
Загрузка...
 
Автор Сообщение

Umakiro

avatar Umakiro


Stefon Harris - Black Action Figure
Жанр: Post-Bop / Vibraphone
Год выпуска диска: 1999
Производитель диска: Blue Note
Аудио кодек: FLAC
Тип рипа: tracks+.cue
Битрейт аудио: lossless
Продолжительность: 0:56:56
Исчтоник: What.CD / effect
Треклист:
01. Club Madness (0:22)
02. Feline Blues (3:36)
03. There is No Greater Love (2:27)
04. Of Things to Come (5:42)
05. After the Day is Gone (6:23)
06. Conversations at the Mess (0:40)
07. Black Action Figure (6:29)
08. Collage (7:56)
09. You Stepped Out of a Dream (1:28)
10. Alovi (5:27)
11. Bass Vibes (0:46)
12. The Alchemist (4:44)
13. Chorale (2:01)
14. Faded Beauty (8:44)
15. Musical Silence (0:10)

Stefon Harris - vibraphone
Greg Osby - alto saxophone
Gary Thomas - tenor saxophone, flute
Steve Turre - trombone
Jason Moran - piano
Tarus Mateen - bass
Eric Harland - drums

Recorded at Systems Two Recording Studios, Brooklyn, New York on February 14 & 15, 1999
Includes liner notes by Stefon Harris

"There Is No Greater Love" was nominated for the 2000 Grammy Award for Best Jazz Instrumental Solo
 
Exact Audio Copy V0.99 prebeta 4 from 23. January 2008

EAC extraction logfile from 7. July 2009, 23:13

Stefon Harris / Black Action Figure

Used drive : PLDS DVD+-RW DH-16A6S Adapter: 3 ID: 0

Read mode : SecureUtilize accurate stream : YesDefeat audio cache : YesMake use of C2 pointers : No

Read offset correction : 6Overread into Lead-In and Lead-Out : NoFill up missing offset samples with silence : YesDelete leading and trailing silent blocks : NoNull samples used in CRC calculations : YesUsed interface : Native Win32 interface for Win NT & 2000Gap handling : Appended to previous track

Used output format : User Defined EncoderSelected bitrate : 128 kBit/sQuality : HighAdd ID3 tag : NoCommand line compressor : C:\Program Files\Exact Audio Copy\Flac\flac.exeAdditional command line options : -V -8 -T "artist=%a" -T "title=%t" -T "album=%g" -T "date=%y" -T "tracknumber=%n" -T "genre=%m" %s

TOC of the extracted CD

Track | Start | Length | Start sector | End sector --------------------------------------------------------- 1 | 0:00.00 | 0:22.37 | 0 | 1686 2 | 0:22.37 | 3:35.73 | 1687 | 17884 3 | 3:58.35 | 2:27.35 | 17885 | 28944 4 | 6:25.70 | 5:42.07 | 28945 | 54601 5 | 12:08.02 | 6:22.63 | 54602 | 83314 6 | 18:30.65 | 0:39.67 | 83315 | 86306 7 | 19:10.57 | 6:29.18 | 86307 | 115499 8 | 25:40.00 | 7:55.52 | 115500 | 151176 9 | 33:35.52 | 1:28.23 | 151177 | 157799 10 | 35:04.00 | 5:26.47 | 157800 | 182296 11 | 40:30.47 | 0:45.48 | 182297 | 185719 12 | 41:16.20 | 4:44.10 | 185720 | 207029 13 | 46:00.30 | 2:00.70 | 207030 | 216099 14 | 48:01.25 | 8:44.22 | 216100 | 255421 15 | 56:45.47 | 0:10.13 | 255422 | 256184

Track 1

Filename C:\New Folder\Stefon Harris - 1999 - Black Action Figure\01 - Club Madness.wav

Pre-gap length 0:00:02.00

Peak level 39.2 % Track quality 100.0 % Test CRC 1A7A0CFD Copy CRC 1A7A0CFD Accurately ripped (confidence 5) [96B5F2FB] Copy OK

Track 2

Filename C:\New Folder\Stefon Harris - 1999 - Black Action Figure\02 - Feline Blues.wav

Peak level 96.9 % Track quality 100.0 % Test CRC C612F032 Copy CRC C612F032 Accurately ripped (confidence 5) [909A17D4] Copy OK

Track 3

Filename C:\New Folder\Stefon Harris - 1999 - Black Action Figure\03 - There is No Greater Love.wav

Peak level 92.3 % Track quality 100.0 % Test CRC EAFF3A1E Copy CRC EAFF3A1E Accurately ripped (confidence 5) [06502788] Copy OK

Track 4

Filename C:\New Folder\Stefon Harris - 1999 - Black Action Figure\04 - Of Things to Come.wav

Pre-gap length 0:00:01.10

Peak level 94.3 % Track quality 100.0 % Test CRC D0E08588 Copy CRC D0E08588 Accurately ripped (confidence 5) [D6E0E947] Copy OK

Track 5

Filename C:\New Folder\Stefon Harris - 1999 - Black Action Figure\05 - After the Day is Gone.wav

Peak level 95.4 % Track quality 100.0 % Test CRC FE4D28C4 Copy CRC FE4D28C4 Accurately ripped (confidence 4) [D0916D3E] Copy OK

Track 6

Filename C:\New Folder\Stefon Harris - 1999 - Black Action Figure\06 - Conversations at the Mess.wav

Peak level 83.1 % Track quality 100.0 % Test CRC 0B02DFF9 Copy CRC 0B02DFF9 Accurately ripped (confidence 5) [81A74DC2] Copy OK

Track 7

Filename C:\New Folder\Stefon Harris - 1999 - Black Action Figure\07 - Black Action Figure.wav

Peak level 95.5 % Track quality 100.0 % Test CRC EFD9FAAB Copy CRC EFD9FAAB Accurately ripped (confidence 5) [188F1FCA] Copy OK

Track 8

Filename C:\New Folder\Stefon Harris - 1999 - Black Action Figure\08 - Collage.wav

Pre-gap length 0:00:01.70

Peak level 96.7 % Track quality 100.0 % Test CRC D34C0CE1 Copy CRC D34C0CE1 Accurately ripped (confidence 4) [EDEE3BDD] Copy OK

Track 9

Filename C:\New Folder\Stefon Harris - 1999 - Black Action Figure\09 - You Stepped Out of a Dream.wav

Pre-gap length 0:00:01.02

Peak level 85.6 % Track quality 99.8 % Test CRC D2BD63FF Copy CRC D2BD63FF Accurately ripped (confidence 5) [5C68E8C5] Copy OK

Track 10

Filename C:\New Folder\Stefon Harris - 1999 - Black Action Figure\10 - Alovi.wav

Peak level 97.2 % Track quality 100.0 % Test CRC 46C8A747 Copy CRC 46C8A747 Accurately ripped (confidence 5) [1A450523] Copy OK

Track 11

Filename C:\New Folder\Stefon Harris - 1999 - Black Action Figure\11 - Bass Vibes.wav

Pre-gap length 0:00:01.13

Peak level 81.3 % Track quality 100.0 % Test CRC 65784DEB Copy CRC 65784DEB Accurately ripped (confidence 4) [A176490C] Copy OK

Track 12

Filename C:\New Folder\Stefon Harris - 1999 - Black Action Figure\12 - The Alchemist.wav

Peak level 95.5 % Track quality 100.0 % Test CRC 85F2123B Copy CRC 85F2123B Accurately ripped (confidence 5) [178EA8CA] Copy OK

Track 13

Filename C:\New Folder\Stefon Harris - 1999 - Black Action Figure\13 - Chorale.wav

Peak level 93.9 % Track quality 100.0 % Test CRC 948AD513 Copy CRC 948AD513 Accurately ripped (confidence 4) [936D9F04] Copy OK

Track 14

Filename C:\New Folder\Stefon Harris - 1999 - Black Action Figure\14 - Faded Beauty.wav

Peak level 98.8 % Track quality 99.9 % Test CRC BAD8023E Copy CRC BAD8023E Accurately ripped (confidence 5) [6DA745CE] Copy OK

Track 15

Filename C:\New Folder\Stefon Harris - 1999 - Black Action Figure\15 - Musical Silence.wav

Peak level 0.0 % Track quality 100.0 % Test CRC DCA21683 Copy CRC DCA21683 Track not present in AccurateRip database Copy OK

14 track(s) accurately ripped 1 track(s) not present in the AccurateRip database

Some tracks could not be verified as accurate

No errors occurred

End of status report
 
REM GENRE JazzREM DATE 1999REM DISCID AB0D570FREM COMMENT "ExactAudioCopy v0.99pb4"FILE "01 - Club Madness.wav" WAVE TRACK 01 AUDIO INDEX 01 00:00:00FILE "02 - Feline Blues.wav" WAVE TRACK 02 AUDIO INDEX 01 00:00:00FILE "03 - There is No Greater Love.wav" WAVE TRACK 03 AUDIO INDEX 01 00:00:00 TRACK 04 AUDIO INDEX 00 02:26:27FILE "04 - Of Things to Come.wav" WAVE INDEX 01 00:00:00FILE "05 - After the Day is Gone.wav" WAVE TRACK 05 AUDIO INDEX 01 00:00:00FILE "06 - Conversations at the Mess.wav" WAVE TRACK 06 AUDIO INDEX 01 00:00:00FILE "07 - Black Action Figure.wav" WAVE TRACK 07 AUDIO INDEX 01 00:00:00 TRACK 08 AUDIO INDEX 00 06:27:40FILE "08 - Collage.wav" WAVE INDEX 01 00:00:00 TRACK 09 AUDIO INDEX 00 07:54:50FILE "09 - You Stepped Out of a Dream.wav" WAVE INDEX 01 00:00:00FILE "10 - Alovi.wav" WAVE TRACK 10 AUDIO INDEX 01 00:00:00 TRACK 11 AUDIO INDEX 00 05:25:37FILE "11 - Bass Vibes.wav" WAVE INDEX 01 00:00:00FILE "12 - The Alchemist.wav" WAVE TRACK 12 AUDIO INDEX 01 00:00:00FILE "13 - Chorale.wav" WAVE TRACK 13 AUDIO INDEX 01 00:00:00FILE "14 - Faded Beauty.wav" WAVE TRACK 14 AUDIO INDEX 01 00:00:00FILE "15 - Musical Silence.wav" WAVE TRACK 15 AUDIO INDEX 01 00:00:00


Трекер:  [ 28-Янв-2012 18:14 ]

  

Скачать .torrent

Размер .torrent файла 14 KB


Размер: 332 MB
Хэш (hash) релиза: 3a5b9c72f90efc38eb0b3294824c79f6402c5b88

Еще никто не оставлял запись к записи скачать торрент Stefon Harris - Black Action Figure . Будь первым!

!Обратная связь