Скачать через торрент музыку Vienna Art Orchestra - A Centenary Journey бесплатно без регистрации torrent

Если у вас наблюдаются проблемы со скриншотами, переходом по ссылками, скачиванием торрентов - проблемы в блокировщике рекламы AdBlock. #хорошегоДня!


Статистика раздачи
Размер:  478 MB   |    Зарегистрирован:  5 лет 8 месяцев   |    .torrent скачан:  31 раз   |   
Раздают:  1  
   
Загрузка...
 
Автор Сообщение

Umakiro

avatar Umakiro


Vienna Art Orchestra - A Centenary Journey (1900-2000)
Жанр: Experimental Big Band
Год выпуска диска: 2001
Производитель диска: QUINTON Q0104
Аудио кодек: FLAC
Тип рипа: tracks+.cue
Битрейт аудио: lossless
Продолжительность: 1:15:00
Источник: What.CD / jazzcrime
Треклист:
01. Roll On Jelly (3:46)
02. Steam Stomp (1:52)
03. Shadows Over The Jazz Age (5:23)
04. Golden Moments (5:16)
05. Arriba (5:31)
06. The Aura Of Coolness (6:14)
07. Back To The Blue Notes (6:11)
08. Caged Freedom (5:13)
09. Woodstocks Dilemma (5:27)
10. The (dis)Advantage Of Silence (1:34)
11. Play It Louder (10:24)
12. Anything Comes - Anything Goes (7:53)
13. Off Beat Berlin On The Beat (5:54)
14. Tomorrow´s Forms - Today´s Emotions (4:25)

Mathias Rüeg - leader
Anna Lauvergnac - vocals
Thorsten Benkenstein, Matthieu Michel, Bumi Fian, Thomas Gansch - trumpets
Robert Bachner, Christian Muthspiel, Ed Partyka - trombones
Klaus Dickbauer, Florian Bramböck, Andy Scherrer, Harry Sokal, Herwig Gradischnig - reeds
Martin Koller - guitar
Georg Breinschmid - acoustic bass
Robert Riegler - electric bass
Mario Gonzi Thomas Lang - drums
 
X Lossless Decoder version 20091108 (112.0)

XLD extraction logfile from 2010-03-04 17:33:50 +0000

Vienna Art Orchestra / A Centenary Journey

Used drive : Optiarc DVD RW AD-5240S (revision 1.03)

Use cdparanoia mode : YES (CDParanoia III 10.2 engine)Disable audio cache : OK for the drive with cache less than 2750KBMake use of C2 pointers : NORead offset correction : 48Max retry count : 100

TOC of the extracted CD Track | Start | Length | Start sector | End sector --------------------------------------------------------- 1 | 00:00:00 | 03:45:45 | 0 | 16919 2 | 03:45:45 | 01:51:40 | 16920 | 25284 3 | 05:37:10 | 05:22:60 | 25285 | 49494 4 | 10:59:70 | 05:15:42 | 49495 | 73161 5 | 16:15:37 | 05:30:70 | 73162 | 97981 6 | 21:46:32 | 06:13:60 | 97982 | 126016 7 | 28:00:17 | 06:11:03 | 126017 | 153844 8 | 34:11:20 | 05:12:55 | 153845 | 177299 9 | 39:24:00 | 05:26:55 | 177300 | 201804 10 | 44:50:55 | 01:33:45 | 201805 | 208824 11 | 46:24:25 | 10:23:65 | 208825 | 255614 12 | 56:48:15 | 07:52:47 | 255615 | 291061 13 | 64:40:62 | 05:54:15 | 291062 | 317626 14 | 70:35:02 | 04:24:45 | 317627 | 337471

Track 01 Filename : /Volumes/HFS1/XLD Rips/Vienna Art Orchestra - 2001 - A Centenary Journey (FLAC)/01 - Roll On Jelly.flac

CRC32 hash (test run) : C6081B69 CRC32 hash : C6081B69 CRC32 hash (skip zero) : 0DBB172D AccurateRip signature : 0CFD2E6E ->Accurately ripped! (confidence 3) Statistics Read error : 0 Skipped (treated as error) : 0 Edge jitter error (maybe fixed) : 0 Atom jitter error (maybe fixed) : 0 Drift error (maybe fixed) : 0 Dropped bytes error (maybe fixed) : 0 Duplicated bytes error (maybe fixed) : 0 Inconsistency in error sectors : 0

Track 02 Filename : /Volumes/HFS1/XLD Rips/Vienna Art Orchestra - 2001 - A Centenary Journey (FLAC)/02 - Steam Stomp.flac

CRC32 hash (test run) : 292E4DA8 CRC32 hash : 292E4DA8 CRC32 hash (skip zero) : 04F38DDA AccurateRip signature : 5FE24DB9 ->Accurately ripped! (confidence 2) Statistics Read error : 0 Skipped (treated as error) : 0 Edge jitter error (maybe fixed) : 0 Atom jitter error (maybe fixed) : 0 Drift error (maybe fixed) : 0 Dropped bytes error (maybe fixed) : 0 Duplicated bytes error (maybe fixed) : 0 Inconsistency in error sectors : 0

Track 03 Filename : /Volumes/HFS1/XLD Rips/Vienna Art Orchestra - 2001 - A Centenary Journey (FLAC)/03 - Shadows Over The Jazz Age.flac

CRC32 hash (test run) : B5F830F3 CRC32 hash : B5F830F3 CRC32 hash (skip zero) : 8D6E13F3 AccurateRip signature : 88A2AAB8 ->Accurately ripped! (confidence 3) Statistics Read error : 0 Skipped (treated as error) : 0 Edge jitter error (maybe fixed) : 0 Atom jitter error (maybe fixed) : 0 Drift error (maybe fixed) : 0 Dropped bytes error (maybe fixed) : 0 Duplicated bytes error (maybe fixed) : 0 Inconsistency in error sectors : 0

Track 04 Filename : /Volumes/HFS1/XLD Rips/Vienna Art Orchestra - 2001 - A Centenary Journey (FLAC)/04 - Golden Moments.flac

CRC32 hash (test run) : 59564777 CRC32 hash : 59564777 CRC32 hash (skip zero) : AD0285E3 AccurateRip signature : 728D3F61 ->Accurately ripped! (confidence 3) Statistics Read error : 0 Skipped (treated as error) : 0 Edge jitter error (maybe fixed) : 0 Atom jitter error (maybe fixed) : 0 Drift error (maybe fixed) : 0 Dropped bytes error (maybe fixed) : 0 Duplicated bytes error (maybe fixed) : 0 Inconsistency in error sectors : 0

Track 05 Filename : /Volumes/HFS1/XLD Rips/Vienna Art Orchestra - 2001 - A Centenary Journey (FLAC)/05 - Arriba.flac

CRC32 hash (test run) : 03C4520E CRC32 hash : 03C4520E CRC32 hash (skip zero) : D7D757ED AccurateRip signature : CC71066C ->Accurately ripped! (confidence 3) Statistics Read error : 0 Skipped (treated as error) : 0 Edge jitter error (maybe fixed) : 0 Atom jitter error (maybe fixed) : 0 Drift error (maybe fixed) : 0 Dropped bytes error (maybe fixed) : 0 Duplicated bytes error (maybe fixed) : 0 Inconsistency in error sectors : 0

Track 06 Filename : /Volumes/HFS1/XLD Rips/Vienna Art Orchestra - 2001 - A Centenary Journey (FLAC)/06 - The Aura Of Coolness.flac

CRC32 hash (test run) : 7AB37989 CRC32 hash : 7AB37989 CRC32 hash (skip zero) : 00EFF339 AccurateRip signature : 2F228795 ->Accurately ripped! (confidence 3) Statistics Read error : 0 Skipped (treated as error) : 0 Edge jitter error (maybe fixed) : 0 Atom jitter error (maybe fixed) : 0 Drift error (maybe fixed) : 0 Dropped bytes error (maybe fixed) : 0 Duplicated bytes error (maybe fixed) : 0 Inconsistency in error sectors : 0

Track 07 Filename : /Volumes/HFS1/XLD Rips/Vienna Art Orchestra - 2001 - A Centenary Journey (FLAC)/07 - Back To The Blue Notes.flac

CRC32 hash (test run) : A85DA5CA CRC32 hash : A85DA5CA CRC32 hash (skip zero) : 63D27F4D AccurateRip signature : 2F692FF9 ->Accurately ripped! (confidence 3) Statistics Read error : 0 Skipped (treated as error) : 0 Edge jitter error (maybe fixed) : 0 Atom jitter error (maybe fixed) : 0 Drift error (maybe fixed) : 0 Dropped bytes error (maybe fixed) : 0 Duplicated bytes error (maybe fixed) : 0 Inconsistency in error sectors : 0

Track 08 Filename : /Volumes/HFS1/XLD Rips/Vienna Art Orchestra - 2001 - A Centenary Journey (FLAC)/08 - Caged Freedom.flac

CRC32 hash (test run) : DA80D34C CRC32 hash : DA80D34C CRC32 hash (skip zero) : 50102784 AccurateRip signature : F620B4C9 ->Accurately ripped! (confidence 3) Statistics Read error : 0 Skipped (treated as error) : 0 Edge jitter error (maybe fixed) : 0 Atom jitter error (maybe fixed) : 0 Drift error (maybe fixed) : 0 Dropped bytes error (maybe fixed) : 0 Duplicated bytes error (maybe fixed) : 0 Inconsistency in error sectors : 0

Track 09 Filename : /Volumes/HFS1/XLD Rips/Vienna Art Orchestra - 2001 - A Centenary Journey (FLAC)/09 - Woodstocks Dilemma.flac

CRC32 hash (test run) : 4FFDA18F CRC32 hash : 4FFDA18F CRC32 hash (skip zero) : 8FFA0FD4 AccurateRip signature : CD873A94 ->Accurately ripped! (confidence 3) Statistics Read error : 0 Skipped (treated as error) : 0 Edge jitter error (maybe fixed) : 0 Atom jitter error (maybe fixed) : 0 Drift error (maybe fixed) : 0 Dropped bytes error (maybe fixed) : 0 Duplicated bytes error (maybe fixed) : 0 Inconsistency in error sectors : 0

Track 10 Filename : /Volumes/HFS1/XLD Rips/Vienna Art Orchestra - 2001 - A Centenary Journey (FLAC)/10 - The (dis)Advantage Of Silence.flac

CRC32 hash (test run) : 2C7C85FB CRC32 hash : 2C7C85FB CRC32 hash (skip zero) : 387F7640 AccurateRip signature : E5A0CB19 ->Accurately ripped! (confidence 2) Statistics Read error : 0 Skipped (treated as error) : 0 Edge jitter error (maybe fixed) : 0 Atom jitter error (maybe fixed) : 0 Drift error (maybe fixed) : 0 Dropped bytes error (maybe fixed) : 0 Duplicated bytes error (maybe fixed) : 0 Inconsistency in error sectors : 0

Track 11 Filename : /Volumes/HFS1/XLD Rips/Vienna Art Orchestra - 2001 - A Centenary Journey (FLAC)/11 - Play It Louder.flac

CRC32 hash (test run) : 3B43B01D CRC32 hash : 3B43B01D CRC32 hash (skip zero) : C1EC948F AccurateRip signature : 9D88FCDE ->Accurately ripped! (confidence 2) Statistics Read error : 0 Skipped (treated as error) : 0 Edge jitter error (maybe fixed) : 0 Atom jitter error (maybe fixed) : 0 Drift error (maybe fixed) : 0 Dropped bytes error (maybe fixed) : 0 Duplicated bytes error (maybe fixed) : 0 Inconsistency in error sectors : 0

Track 12 Filename : /Volumes/HFS1/XLD Rips/Vienna Art Orchestra - 2001 - A Centenary Journey (FLAC)/12 - Anything Comes - Anything Goes.flac

CRC32 hash (test run) : 92448C3E CRC32 hash : 92448C3E CRC32 hash (skip zero) : 9673A005 AccurateRip signature : 3DDDE5EA ->Accurately ripped! (confidence 3) Statistics Read error : 0 Skipped (treated as error) : 0 Edge jitter error (maybe fixed) : 0 Atom jitter error (maybe fixed) : 0 Drift error (maybe fixed) : 0 Dropped bytes error (maybe fixed) : 0 Duplicated bytes error (maybe fixed) : 0 Inconsistency in error sectors : 0

Track 13 Filename : /Volumes/HFS1/XLD Rips/Vienna Art Orchestra - 2001 - A Centenary Journey (FLAC)/13 - Off Beat Berlin On The Beat.flac

CRC32 hash (test run) : D7610DAD CRC32 hash : D7610DAD CRC32 hash (skip zero) : 5A28B6AD AccurateRip signature : 266E5C88 ->Accurately ripped! (confidence 3) Statistics Read error : 0 Skipped (treated as error) : 0 Edge jitter error (maybe fixed) : 0 Atom jitter error (maybe fixed) : 0 Drift error (maybe fixed) : 0 Dropped bytes error (maybe fixed) : 0 Duplicated bytes error (maybe fixed) : 0 Inconsistency in error sectors : 0

Track 14 Filename : /Volumes/HFS1/XLD Rips/Vienna Art Orchestra - 2001 - A Centenary Journey (FLAC)/14 - Tomorrow´s Forms - Today´s Emotions.flac

CRC32 hash (test run) : BF272E99 CRC32 hash : BF272E99 CRC32 hash (skip zero) : 78B99FA4 AccurateRip signature : 309BC3B4 ->Accurately ripped! (confidence 2) Statistics Read error : 0 Skipped (treated as error) : 0 Edge jitter error (maybe fixed) : 0 Atom jitter error (maybe fixed) : 0 Drift error (maybe fixed) : 0 Dropped bytes error (maybe fixed) : 0 Duplicated bytes error (maybe fixed) : 0 Inconsistency in error sectors : 0

No errors occurred

End of status report
 
TITLE "A Centenary Journey"PERFORMER "Vienna Art Orchestra"REM GENRE "Jazz"REM DATE 2001FILE "01 - Roll On Jelly.wav" WAVE TRACK 01 AUDIO TITLE "Roll On Jelly" INDEX 01 00:00:00FILE "02 - Steam Stomp.wav" WAVE TRACK 02 AUDIO TITLE "Steam Stomp" INDEX 01 00:00:00FILE "03 - Shadows Over The Jazz Age.wav" WAVE TRACK 03 AUDIO TITLE "Shadows Over The Jazz Age" INDEX 01 00:00:00FILE "04 - Golden Moments.wav" WAVE TRACK 04 AUDIO TITLE "Golden Moments" INDEX 01 00:00:00FILE "05 - Arriba.wav" WAVE TRACK 05 AUDIO TITLE "Arriba" INDEX 01 00:00:00FILE "06 - The Aura Of Coolness.wav" WAVE TRACK 06 AUDIO TITLE "The Aura Of Coolness" INDEX 01 00:00:00FILE "07 - Back To The Blue Notes.wav" WAVE TRACK 07 AUDIO TITLE "Back To The Blue Notes" INDEX 01 00:00:00FILE "08 - Caged Freedom.wav" WAVE TRACK 08 AUDIO TITLE "Caged Freedom" INDEX 01 00:00:00FILE "09 - Woodstocks Dilemma.wav" WAVE TRACK 09 AUDIO TITLE "Woodstocks Dilemma" INDEX 01 00:00:00FILE "10 - The (dis)Advantage Of Silence.wav" WAVE TRACK 10 AUDIO TITLE "The (dis)Advantage Of Silence" INDEX 01 00:00:00FILE "11 - Play It Louder.wav" WAVE TRACK 11 AUDIO TITLE "Play It Louder" INDEX 01 00:00:00FILE "12 - Anything Comes - Anything Goes.wav" WAVE TRACK 12 AUDIO TITLE "Anything Comes - Anything Goes" INDEX 01 00:00:00FILE "13 - Off Beat Berlin On The Beat.wav" WAVE TRACK 13 AUDIO TITLE "Off Beat Berlin On The Beat" INDEX 01 00:00:00FILE "14 - Tomorrow´s Forms - Today´s Emotions.wav" WAVE TRACK 14 AUDIO TITLE "Tomorrow´s Forms - Today´s Emotions" INDEX 01 00:00:00


Трекер:  [ 28-Янв-2012 18:13 ]

  

Скачать .torrent

Размер .torrent файла 20 KB


Размер: 478 MB
Хэш (hash) релиза: 2e0ed9e52f6abaa5a76d6eee135931f3b4310704

Еще никто не оставлял запись к записи скачать торрент Vienna Art Orchestra - A Centenary Journey . Будь первым!

!Обратная связь