Скачать через торрент музыку World Saxophone Quartet - Political Blues - 2006, FLAC бесплатно без регистрации torrent

Если у вас наблюдаются проблемы со скриншотами, переходом по ссылками, скачиванием торрентов - проблемы в блокировщике рекламы AdBlock. #хорошегоДня!


Статистика раздачи
Размер:  416 MB   |    Зарегистрирован:  5 лет 8 месяцев   |    .torrent скачан:  24 раза   |   
Раздают:  1  
   
Загрузка...
 
Автор Сообщение

Umakiro

avatar Umakiro


World Saxophone Quartet - Political Blues
Жанр: Modern Creative / Fusion / Vocal / R'N'B
Год выпуска диска: 2006
Производитель диска: Justin Time
Аудио кодек: FLAC
Тип рипа: tracks+.cue
Битрейт аудио: lossless
Продолжительность: 1:01:56
Источник: What.CD / weareborg
Треклист:
01. Political Blues (9:04)
02. Hal's Blues for Hal "Cornbread" Singer (2:55)
03. Mannish Boy (7:27)
04. Let's Have Some Fun (7:23)
05. Amazin' Disgrace (5:55)
06. Bluocracy Part 1 (5:03)
07. Bluocracy Part 2 (2:21)
08. Bluocracy Part 3 (3:45)
09. Blue Diamond (4:41)
10. Harlem (7:28)
11. Spy On Me Blues (5:54)

Bluiett - baritone saxophone
Oliver Lake - alto and soprano saxophone (vocals on 11)
David Murray - tenor saxophone, bass clarinet (vocals on 1)
Jamaaladeen Tacuma - electric bass;
Bruce Williams - alto and soprano saxophone (4, 11)
Jaleel Shaw - alto and soprano saxophone
Craig Harris - trombone, didjeridoo (vocals on 6)
Lee Pearson - drums
James "Blood" Ulmer - guitar, vocals (3)
Jeremy Pelt - trumpet (1)
Carolyn Amba Hawthorne - vocals (5)
Herve Samb - guitar (1)
 
X Lossless Decoder version 20090320 (105.1)

XLD extraction logfile from 2009-03-31 19:41:43 +0200

World Saxophone Quartet / Political Blues

Used drive : LITE-ON DVDRW SOHW-1673S (revision JS0B)

Use cdparanoia mode : YES (CDParanoia III 10.2 engine)Disable audio cache : OK for the drive with cache less than 2750KBMake use of C2 pointers : NORead offset correction : 12Max retry count : 100

TOC of the extracted CD Track | Start | Length | Start sector | End sector --------------------------------------------------------- 1 | 00:00:00 | 09:04:30 | 0 | 40829 2 | 09:04:30 | 02:54:52 | 40830 | 53931 3 | 11:59:07 | 07:26:50 | 53932 | 87431 4 | 19:25:57 | 07:23:25 | 87432 | 120681 5 | 26:49:07 | 05:55:16 | 120682 | 147322 6 | 32:44:23 | 05:03:27 | 147323 | 170074 7 | 37:47:50 | 02:21:12 | 170075 | 180661 8 | 40:08:62 | 03:44:48 | 180662 | 197509 9 | 43:53:35 | 04:41:01 | 197510 | 218585 10 | 48:34:36 | 07:27:56 | 218586 | 252166 11 | 56:02:17 | 05:54:03 | 252167 | 278719

Track 01 Filename : /Users/CH/Desktop/World Saxophone Quartet - Political Blues/01 Political Blues.flac

CRC32 hash : 948A71A1 CRC32 hash (skip zero) : D8A7FFA2 AccurateRip signature : D294468C ->Accurately ripped! (confidence 3) Statistics Read error : 0 Skipped (treated as error) : 0 Edge jitter error (maybe fixed) : 0 Atom jitter error (maybe fixed) : 0 Drift error (maybe fixed) : 0 Dropped bytes error (maybe fixed) : 0 Duplicated bytes error (maybe fixed) : 0

Track 02 Filename : /Users/CH/Desktop/World Saxophone Quartet - Political Blues/02 Hal's Blues for Hal "Cornbread" Singer.flac

CRC32 hash : 4837099F CRC32 hash (skip zero) : 84BDFD68 AccurateRip signature : 27477808 ->Accurately ripped! (confidence 3) Statistics Read error : 0 Skipped (treated as error) : 0 Edge jitter error (maybe fixed) : 0 Atom jitter error (maybe fixed) : 0 Drift error (maybe fixed) : 0 Dropped bytes error (maybe fixed) : 0 Duplicated bytes error (maybe fixed) : 0

Track 03 Filename : /Users/CH/Desktop/World Saxophone Quartet - Political Blues/03 Mannish Boy.flac

CRC32 hash : DD56724E CRC32 hash (skip zero) : 377A9ADA AccurateRip signature : 02EB50A6 ->Accurately ripped! (confidence 3) Statistics Read error : 0 Skipped (treated as error) : 0 Edge jitter error (maybe fixed) : 0 Atom jitter error (maybe fixed) : 0 Drift error (maybe fixed) : 0 Dropped bytes error (maybe fixed) : 0 Duplicated bytes error (maybe fixed) : 0

Track 04 Filename : /Users/CH/Desktop/World Saxophone Quartet - Political Blues/04 Let's Have Some Fun.flac

CRC32 hash : 3A8DA148 CRC32 hash (skip zero) : 13B4EE05 AccurateRip signature : 5AB89E1F ->Accurately ripped! (confidence 3) Statistics Read error : 0 Skipped (treated as error) : 0 Edge jitter error (maybe fixed) : 0 Atom jitter error (maybe fixed) : 0 Drift error (maybe fixed) : 0 Dropped bytes error (maybe fixed) : 0 Duplicated bytes error (maybe fixed) : 0

Track 05 Filename : /Users/CH/Desktop/World Saxophone Quartet - Political Blues/05 Amazin' Disgrace.flac

CRC32 hash : F419CBB5 CRC32 hash (skip zero) : 4480A30B AccurateRip signature : D59CDD22 ->Accurately ripped! (confidence 3) Statistics Read error : 0 Skipped (treated as error) : 0 Edge jitter error (maybe fixed) : 0 Atom jitter error (maybe fixed) : 0 Drift error (maybe fixed) : 0 Dropped bytes error (maybe fixed) : 0 Duplicated bytes error (maybe fixed) : 0

Track 06 Filename : /Users/CH/Desktop/World Saxophone Quartet - Political Blues/06 Bluocracy Part 1.flac

CRC32 hash : CA6CF641 CRC32 hash (skip zero) : EE475016 AccurateRip signature : A600EAAF ->Accurately ripped! (confidence 3) Statistics Read error : 0 Skipped (treated as error) : 0 Edge jitter error (maybe fixed) : 0 Atom jitter error (maybe fixed) : 0 Drift error (maybe fixed) : 0 Dropped bytes error (maybe fixed) : 0 Duplicated bytes error (maybe fixed) : 0

Track 07 Filename : /Users/CH/Desktop/World Saxophone Quartet - Political Blues/07 Bluocracy Part 2.flac

CRC32 hash : 7F0925AE CRC32 hash (skip zero) : E486E3C0 AccurateRip signature : 22397311 ->Accurately ripped! (confidence 3) Statistics Read error : 0 Skipped (treated as error) : 0 Edge jitter error (maybe fixed) : 0 Atom jitter error (maybe fixed) : 0 Drift error (maybe fixed) : 0 Dropped bytes error (maybe fixed) : 0 Duplicated bytes error (maybe fixed) : 0

Track 08 Filename : /Users/CH/Desktop/World Saxophone Quartet - Political Blues/08 Bluocracy Part 3.flac

CRC32 hash : 6295411D CRC32 hash (skip zero) : D43047FB AccurateRip signature : F22C1248 ->Accurately ripped! (confidence 3) Statistics Read error : 0 Skipped (treated as error) : 0 Edge jitter error (maybe fixed) : 0 Atom jitter error (maybe fixed) : 0 Drift error (maybe fixed) : 0 Dropped bytes error (maybe fixed) : 0 Duplicated bytes error (maybe fixed) : 0

Track 09 Filename : /Users/CH/Desktop/World Saxophone Quartet - Political Blues/09 Blue Diamond.flac

CRC32 hash : 54F8D254 CRC32 hash (skip zero) : 69527438 AccurateRip signature : 633688ED ->Accurately ripped! (confidence 3) Statistics Read error : 0 Skipped (treated as error) : 0 Edge jitter error (maybe fixed) : 0 Atom jitter error (maybe fixed) : 1 Drift error (maybe fixed) : 0 Dropped bytes error (maybe fixed) : 0 Duplicated bytes error (maybe fixed) : 0

Track 10 Filename : /Users/CH/Desktop/World Saxophone Quartet - Political Blues/10 Harlem.flac

CRC32 hash : E6BAAF40 CRC32 hash (skip zero) : B4EDF61B AccurateRip signature : D48FA8E0 ->Accurately ripped! (confidence 2) Statistics Read error : 0 Skipped (treated as error) : 0 Edge jitter error (maybe fixed) : 0 Atom jitter error (maybe fixed) : 0 Drift error (maybe fixed) : 0 Dropped bytes error (maybe fixed) : 0 Duplicated bytes error (maybe fixed) : 0

Track 11 Filename : /Users/CH/Desktop/World Saxophone Quartet - Political Blues/11 Spy On Me Blues.flac

CRC32 hash : 9B724E69 CRC32 hash (skip zero) : 4D221DF0 AccurateRip signature : 6737DF60 ->Accurately ripped! (confidence 3) Statistics Read error : 0 Skipped (treated as error) : 0 Edge jitter error (maybe fixed) : 0 Atom jitter error (maybe fixed) : 0 Drift error (maybe fixed) : 0 Dropped bytes error (maybe fixed) : 0 Duplicated bytes error (maybe fixed) : 0

No errors occurred

End of status report
 
TITLE "Political Blues"PERFORMER "World Saxophone Quartet"REM GENRE "Jazz"REM DATE 2006FILE "01 Political Blues.wav" WAVE TRACK 01 AUDIO TITLE "Political Blues" ISRC CAJ220622160 INDEX 01 00:00:00 TRACK 02 AUDIO TITLE "Hal's Blues for Hal "Cornbread" Singer" ISRC CAJ220622171 INDEX 00 09:01:03FILE "02 Hal's Blues for Hal "Cornbread" Singer.wav" WAVE INDEX 01 00:00:00 TRACK 03 AUDIO TITLE "Mannish Boy" ISRC CAJ220622182 INDEX 00 02:51:52FILE "03 Mannish Boy.wav" WAVE INDEX 01 00:00:00 TRACK 04 AUDIO TITLE "Let's Have Some Fun" ISRC CAJ220622193 INDEX 00 07:23:00FILE "04 Let's Have Some Fun.wav" WAVE INDEX 01 00:00:00 TRACK 05 AUDIO TITLE "Amazin' Disgrace" ISRC CAJ220622204 INDEX 00 07:20:00FILE "05 Amazin' Disgrace.wav" WAVE INDEX 01 00:00:00 TRACK 06 AUDIO TITLE "Bluocracy Part 1" ISRC CAJ220622215 INDEX 00 05:51:16FILE "06 Bluocracy Part 1.wav" WAVE INDEX 01 00:00:00FILE "07 Bluocracy Part 2.wav" WAVE TRACK 07 AUDIO TITLE "Bluocracy Part 2" ISRC CAJ220622226 INDEX 01 00:00:00FILE "08 Bluocracy Part 3.wav" WAVE TRACK 08 AUDIO TITLE "Bluocracy Part 3" ISRC CAJ220622237 INDEX 01 00:00:00 TRACK 09 AUDIO TITLE "Blue Diamond" ISRC CAJ220622248 INDEX 00 03:40:65FILE "09 Blue Diamond.wav" WAVE INDEX 01 00:00:00 TRACK 10 AUDIO TITLE "Harlem" ISRC CAJ220622259 INDEX 00 04:37:35FILE "10 Harlem.wav" WAVE INDEX 01 00:00:00 TRACK 11 AUDIO TITLE "Spy On Me Blues" ISRC CAJ220622260 INDEX 00 07:23:63FILE "11 Spy On Me Blues.wav" WAVE INDEX 01 00:00:00


Трекер:  [ 28-Янв-2012 18:13 ]

  

Скачать .torrent

Размер .torrent файла 17 KB


Размер: 416 MB
Хэш (hash) релиза: 29a266572007496807b8d445a4f357db7fb81391

Еще никто не оставлял запись к записи скачать торрент World Saxophone Quartet - Political Blues - 2006, FLAC . Будь первым!

!Обратная связь