Скачать через торрент музыку Keith Jarrett - The Seventies бесплатно без регистрации torrent

Если у вас наблюдаются проблемы со скриншотами, переходом по ссылками, скачиванием торрентов - проблемы в блокировщике рекламы AdBlock. #хорошегоДня!


Статистика раздачи
Размер:  295 MB   |    Зарегистрирован:  5 лет 8 месяцев   |    .torrent скачан:  21 раз   |   
Раздают:  1  
   
Загрузка...
 
Автор Сообщение

Umakiro

avatar Umakiro


Keith Jarrett - The Seventies
Жанр: Post-Bop / Piano
Год выпуска диска: 2003
Производитель диска: Universal {059 894-2}
Аудио кодек: WAVPack
Тип рипа: image+.cue
Битрейт аудио: lossless
Продолжительность: 0:45:47
Источник: HQShare / bINkI
Треклист:
01. De Drums (12:08)
02. Silence (3:17)
03. Blackberry Winter (3:42)
04. Bop-Be (6:59)
05. Vapallia (7:51)
06. Treasure Island (4:30)
07. Byablue (7:22)

Keith Jarrett - piano, percussion
Dewey Redman - tenor sax
Charlie Haden - bass
Paul Motian - drums, percussion
Danny Johnson, Guilherme Franco - percussion
Sam Brown - chit

Recorded between 1973-1975. Compilation
 
Exact Audio Copy V0.99 prebeta 5 from 4. May 2009

EAC extraction logfile from 1. August 2010, 16:28

Keith Jarrett / The Seventies

Used drive : HL-DT-STDVD-RAM GH22NP20 Adapter: 1 ID: 1

Read mode : SecureUtilize accurate stream : YesDefeat audio cache : YesMake use of C2 pointers : No

Read offset correction : 102Overread into Lead-In and Lead-Out : NoFill up missing offset samples with silence : YesDelete leading and trailing silent blocks : NoNull samples used in CRC calculations : NoUsed interface : Native Win32 interface for Win NT & 2000

Used output format : Internal WAV RoutinesSample format : 44.100 Hz; 16 Bit; Stereo

TOC of the extracted CD

Track | Start | Length | Start sector | End sector --------------------------------------------------------- 1 | 0:00.32 | 12:07.58 | 32 | 54614 2 | 12:08.15 | 3:16.57 | 54615 | 69371 3 | 15:24.72 | 3:41.38 | 69372 | 85984 4 | 19:06.35 | 6:59.02 | 85985 | 117411 5 | 26:05.37 | 7:50.70 | 117412 | 152731 6 | 33:56.32 | 4:29.55 | 152732 | 172961 7 | 38:26.12 | 7:21.45 | 172962 | 206081

Range status and errors

Selected range

Filename C:\Documents and Settings\Riccardo\Desktop\new\Keith Jarrett - The Seventies.wav

Peak level 100.0 % Range quality 100.0 % Test CRC 18D49192 Copy CRC 18D49192 Copy OK

No errors occurred

AccurateRip summary

Track 1 accurately ripped (confidence 1) [4F191E18]Track 2 accurately ripped (confidence 1) [B5AEF7DA]Track 3 accurately ripped (confidence 1) [71FB9926]Track 4 accurately ripped (confidence 1) [D4B1F5E1]Track 5 accurately ripped (confidence 1) [C06D9512]Track 6 accurately ripped (confidence 1) [465A5E05]Track 7 accurately ripped (confidence 1) [F10FBA8E]

All tracks accurately ripped

End of status report


Трекер:  [ 28-Янв-2012 18:12 ]

  

Скачать .torrent

Размер .torrent файла 12 KB


Размер: 295 MB
Хэш (hash) релиза: 2f1267b235673903cab313286749f5a131ebde24

Еще никто не оставлял запись к записи скачать торрент Keith Jarrett - The Seventies . Будь первым!

!Обратная связь