Скачать через торрент музыку Lee Konitz & the Brazilian Band - Brazilian Rhapsody - 1996, WAVPack бесплатно без регистрации torrent

Если у вас наблюдаются проблемы со скриншотами, переходом по ссылками, скачиванием торрентов - проблемы в блокировщике рекламы AdBlock. #хорошегоДня!


Статистика раздачи
Размер:  308 MB   |    Зарегистрирован:  5 лет 8 месяцев   |    .torrent скачан:  34 раза   |   
Раздают:  1  
   
Загрузка...
 
Автор Сообщение

Umakiro

avatar Umakiro


Lee Konitz & the Brazilian Band - Brazilian Rhapsody
Жанр: Cool / Bossa Nova / Brazilian
Год выпуска диска: 1996
Производитель диска: Venus/Jazz Heritage/MusicMasters {01612-65151-2}
Аудио кодек: WAVPack
Тип рипа: image+.cue
Битрейт аудио: lossless
Продолжительность: 0:49:54
Источник: HQShare / bINkI
Треклист:
01. Samba Triste (7:28)
02. Berimbau (7:27)
03. Menina Moca (6:10)
04. Triste (6:05)
05. A Felicidade (6:27)
06. Lunasea (5:58)
07. Manha De Carnaval (4:07)
08. Insensatez (6:11)

Lee Konitz - alto, soprano saxes
Romero Lubambo - acoustic guitar
Peggy Stern - piano
Dave Finck - bass
Duduka Dafonseca - drums
Waltinho Anastacio - percussion
Adela Dalto - vocal [#5]
The Master School Chorus - [#6]

Recorded at Sound On Sound in New York, on January 28-31, 1995
This album is dedicated to A.C. Jobim
 
Exact Audio Copy V0.99 prebeta 5 from 4. May 2009

EAC extraction logfile from 1. August 2010, 21:44

Lee Konitz & the Brazilian Band / Brazilian Rhapsody

Used drive : HL-DT-STDVD-RAM GH22NP20 Adapter: 1 ID: 1

Read mode : SecureUtilize accurate stream : YesDefeat audio cache : YesMake use of C2 pointers : No

Read offset correction : 102Overread into Lead-In and Lead-Out : NoFill up missing offset samples with silence : YesDelete leading and trailing silent blocks : NoNull samples used in CRC calculations : NoUsed interface : Native Win32 interface for Win NT & 2000

Used output format : Internal WAV RoutinesSample format : 44.100 Hz; 16 Bit; Stereo

TOC of the extracted CD

Track | Start | Length | Start sector | End sector --------------------------------------------------------- 1 | 0:00.00 | 7:28.00 | 0 | 33599 2 | 7:28.00 | 7:26.57 | 33600 | 67106 3 | 14:54.57 | 6:10.20 | 67107 | 94876 4 | 21:05.02 | 6:05.08 | 94877 | 122259 5 | 27:10.10 | 6:26.60 | 122260 | 151269 6 | 33:36.70 | 5:58.37 | 151270 | 178156 7 | 39:35.32 | 4:07.13 | 178157 | 196694 8 | 43:42.45 | 6:11.20 | 196695 | 224539

Range status and errors

Selected range

Filename C:\Documents and Settings\Riccardo\Desktop\new\Lee Konitz & the Brazilian Band - Brazilian Rhapsody.wav

Peak level 100.0 % Range quality 99.9 % Test CRC A4B866B3 Copy CRC A4B866B3 Copy OK

No errors occurred

AccurateRip summary

Track 1 cannot be verified as accurate (confidence 1) [8A7E9084], AccurateRip returned [CDBEF4AD]Track 2 cannot be verified as accurate (confidence 1) [474E6BFC], AccurateRip returned [9125276C]Track 3 cannot be verified as accurate (confidence 1) [C236F812], AccurateRip returned [B7F37A36]Track 4 cannot be verified as accurate (confidence 1) [3B267002], AccurateRip returned [F7ED9DF2]Track 5 cannot be verified as accurate (confidence 1) [F6CFF0B0], AccurateRip returned [D4D444C1]Track 6 cannot be verified as accurate (confidence 1) [73BF6948], AccurateRip returned [159E94FB]Track 7 cannot be verified as accurate (confidence 1) [09E59E74], AccurateRip returned [42F6C4EB]Track 8 cannot be verified as accurate (confidence 1) [8B3F9CAE], AccurateRip returned [42EDE764]

No tracks could be verified as accurateYou may have a different pressing from the one(s) in the database

End of status report


Трекер:  [ 28-Янв-2012 18:11 ]

  

Скачать .torrent

Размер .torrent файла 13 KB


Размер: 308 MB
Хэш (hash) релиза: 9155aa4aa197ba1d1da3b60008e4a984712da00d

Еще никто не оставлял запись к записи скачать торрент Lee Konitz & the Brazilian Band - Brazilian Rhapsody - 1996, WAVPack . Будь первым!

!Обратная связь