Скачать через торрент музыку Mose Allison - Mose Allison Sings бесплатно без регистрации torrent

Если у вас наблюдаются проблемы со скриншотами, переходом по ссылками, скачиванием торрентов - проблемы в блокировщике рекламы AdBlock. #хорошегоДня!


Статистика раздачи
Размер:  324 MB   |    Зарегистрирован:  5 лет 8 месяцев   |    .torrent скачан:  39 раз   |   
Раздают:  1  
   
Загрузка...
 
Автор Сообщение

Umakiro

avatar Umakiro


Mose Allison - Mose Allison Sings
Жанр: Soul-Jazz / Rhythm & Blues / Piano / Vocal
Год выпуска диска: 2006
Производитель диска: Prestige/Concord {888072300118}
Аудио кодек: FLAC
Тип рипа: tracks+.cue
Битрейт аудио: lossless
Продолжительность: 0:46:25
Источник: AvaxHome / ruskaval
Треклист:
01. The Seventh Son (2:40)
02. Eyesight To The Blind (1:44)
03. Do Nothin' 'Till You Hear From Me (3:14)
04. Lost Mind (3:34)
05. I've Got A Right To Cry (2:51)
06. Baby Let Me Hold Your Hand (3:18)
07. Parchman Farm (3:20)
08. If You Live (2:31)
09. Don't Get Around Much Anymore (2:49)
10. One Room Country Shack (3:04)
11. I Hadn't Anyone Till You (2:35)
12. Young Man's Blues (1:27)
13. That's All Right (2:29)
14. Blueberry Hill (2:58)
15. Trouble In Mind (3:16)
16. Creek Bank (4:35)

Mose Allison - piano, vocals [except #14-16], trumpet [#15 only]
Addison Farmer, Taylor La Fargue - bass
Frank Isola, Ronnie Free, Nick Stabulas - drums

Recorded at the Van Gelder Studio between March 7, 1957 and February 13, 1959
 
Exact Audio Copy V0.99 prebeta 5 from 4. May 2009

EAC extraction logfile from 3. September 2010, 15:35

Mose Allison / Mose Allison Sings

Used drive : TSSTcorpCD/DVDW TS-H552L Adapter: 3 ID: 0

Read mode : SecureUtilize accurate stream : YesDefeat audio cache : YesMake use of C2 pointers : No

Read offset correction : 6Overread into Lead-In and Lead-Out : NoFill up missing offset samples with silence : YesDelete leading and trailing silent blocks : NoNull samples used in CRC calculations : YesUsed interface : Native Win32 interface for Win NT & 2000Gap handling : Appended to previous track

Used output format : User Defined EncoderSelected bitrate : 1024 kBit/sQuality : HighAdd ID3 tag : NoCommand line compressor : C:\Program Files\FLAC\flac.exeAdditional command line options : -6 -V -T "ARTIST=%a" -T "TITLE=%t" -T "ALBUM=%g" -T "DATE=%y" -T "TRACKNUMBER=%n" -T "GENRE=%m" -T "COMMENT=EAC FLAC -6" %s

TOC of the extracted CD

Track | Start | Length | Start sector | End sector --------------------------------------------------------- 1 | 0:00.00 | 2:40.21 | 0 | 12020 2 | 2:40.21 | 1:43.64 | 12021 | 19809 3 | 4:24.10 | 3:13.39 | 19810 | 34323 4 | 7:37.49 | 3:33.41 | 34324 | 50339 5 | 11:11.15 | 2:51.23 | 50340 | 63187 6 | 14:02.38 | 3:17.65 | 63188 | 78027 7 | 17:20.28 | 3:20.04 | 78028 | 93031 8 | 20:40.32 | 2:31.37 | 93032 | 104393 9 | 23:11.69 | 2:49.22 | 104394 | 117090 10 | 26:01.16 | 3:03.54 | 117091 | 130869 11 | 29:04.70 | 2:34.59 | 130870 | 142478 12 | 31:39.54 | 1:27.10 | 142479 | 149013 13 | 33:06.64 | 2:28.71 | 149014 | 160184 14 | 35:35.60 | 2:58.30 | 160185 | 173564 15 | 38:34.15 | 3:15.41 | 173565 | 188230 16 | 41:49.56 | 4:34.72 | 188231 | 208852

Track 1

Filename C:\ruskaval\Mose Allison - Mose Allison Sings (1959) {2006 Prestige Rudy Van Gelder Remaster}\01 - The Seventh Son.wav

Pre-gap length 0:00:02.00

Peak level 77.4 % Track quality 100.0 % Test CRC CC5EA167 Copy CRC CC5EA167 Accurately ripped (confidence 8) [97929132] Copy OK

Track 2

Filename C:\ruskaval\Mose Allison - Mose Allison Sings (1959) {2006 Prestige Rudy Van Gelder Remaster}\02 - Eyesight To The Blind.wav

Pre-gap length 0:00:03.04

Peak level 87.0 % Track quality 100.0 % Test CRC CD5FF555 Copy CRC CD5FF555 Accurately ripped (confidence 8) [DD6CDBB6] Copy OK

Track 3

Filename C:\ruskaval\Mose Allison - Mose Allison Sings (1959) {2006 Prestige Rudy Van Gelder Remaster}\03 - Do Nothin' 'Till You Hear From Me.wav

Pre-gap length 0:00:03.23

Peak level 83.6 % Track quality 100.0 % Test CRC F46558F1 Copy CRC F46558F1 Accurately ripped (confidence 8) [80CAA175] Copy OK

Track 4

Filename C:\ruskaval\Mose Allison - Mose Allison Sings (1959) {2006 Prestige Rudy Van Gelder Remaster}\04 - Lost Mind.wav

Pre-gap length 0:00:03.37

Peak level 93.2 % Track quality 100.0 % Test CRC 5BA57974 Copy CRC 5BA57974 Accurately ripped (confidence 8) [F64125D9] Copy OK

Track 5

Filename C:\ruskaval\Mose Allison - Mose Allison Sings (1959) {2006 Prestige Rudy Van Gelder Remaster}\05 - I've Got A Right To Cry.wav

Pre-gap length 0:00:02.70

Peak level 73.5 % Track quality 100.0 % Test CRC 32E53266 Copy CRC 32E53266 Accurately ripped (confidence 8) [338364F5] Copy OK

Track 6

Filename C:\ruskaval\Mose Allison - Mose Allison Sings (1959) {2006 Prestige Rudy Van Gelder Remaster}\06 - Baby Let Me Hold Your Hand.wav

Pre-gap length 0:00:03.69

Peak level 78.8 % Track quality 100.0 % Test CRC AAFC5EA9 Copy CRC AAFC5EA9 Accurately ripped (confidence 8) [5F97C136] Copy OK

Track 7

Filename C:\ruskaval\Mose Allison - Mose Allison Sings (1959) {2006 Prestige Rudy Van Gelder Remaster}\07 - Parchman Farm.wav

Pre-gap length 0:00:03.68

Peak level 90.3 % Track quality 100.0 % Test CRC 759F97D9 Copy CRC 759F97D9 Accurately ripped (confidence 8) [3AC49AB6] Copy OK

Track 8

Filename C:\ruskaval\Mose Allison - Mose Allison Sings (1959) {2006 Prestige Rudy Van Gelder Remaster}\08 - If You Live.wav

Pre-gap length 0:00:02.70

Peak level 69.1 % Track quality 100.0 % Test CRC 80122CFF Copy CRC 80122CFF Accurately ripped (confidence 8) [B449D8F7] Copy OK

Track 9

Filename C:\ruskaval\Mose Allison - Mose Allison Sings (1959) {2006 Prestige Rudy Van Gelder Remaster}\09 - Don't Get Around Much Anymore.wav

Pre-gap length 0:00:01.71

Peak level 84.6 % Track quality 100.0 % Test CRC 227D9401 Copy CRC 227D9401 Accurately ripped (confidence 8) [18FB57DA] Copy OK

Track 10

Filename C:\ruskaval\Mose Allison - Mose Allison Sings (1959) {2006 Prestige Rudy Van Gelder Remaster}\10 - One Room Country Shack.wav

Pre-gap length 0:00:02.61

Peak level 85.7 % Track quality 100.0 % Test CRC 2585FCB1 Copy CRC 2585FCB1 Accurately ripped (confidence 8) [580930DC] Copy OK

Track 11

Filename C:\ruskaval\Mose Allison - Mose Allison Sings (1959) {2006 Prestige Rudy Van Gelder Remaster}\11 - I Hadn't Anyone Till You.wav

Pre-gap length 0:00:03.66

Peak level 79.3 % Track quality 100.0 % Test CRC DEB794EF Copy CRC DEB794EF Accurately ripped (confidence 8) [A557ED59] Copy OK

Track 12

Filename C:\ruskaval\Mose Allison - Mose Allison Sings (1959) {2006 Prestige Rudy Van Gelder Remaster}\12 - Young Man's Blues.wav

Pre-gap length 0:00:04.05

Peak level 73.6 % Track quality 100.0 % Test CRC 09B99E0C Copy CRC 09B99E0C Accurately ripped (confidence 8) [969D9CE5] Copy OK

Track 13

Filename C:\ruskaval\Mose Allison - Mose Allison Sings (1959) {2006 Prestige Rudy Van Gelder Remaster}\13 - That's All Right.wav

Pre-gap length 0:00:03.39

Peak level 85.8 % Track quality 100.0 % Test CRC 6C68FC4F Copy CRC 6C68FC4F Accurately ripped (confidence 8) [D1389B95] Copy OK

Track 14

Filename C:\ruskaval\Mose Allison - Mose Allison Sings (1959) {2006 Prestige Rudy Van Gelder Remaster}\14 - Blueberry Hill.wav

Pre-gap length 0:00:03.13

Peak level 69.7 % Track quality 100.0 % Test CRC AE8A2F02 Copy CRC AE8A2F02 Accurately ripped (confidence 8) [16467D46] Copy OK

Track 15

Filename C:\ruskaval\Mose Allison - Mose Allison Sings (1959) {2006 Prestige Rudy Van Gelder Remaster}\15 - Trouble In Mind.wav

Pre-gap length 0:00:03.49

Peak level 77.4 % Track quality 100.0 % Test CRC 0FFFA859 Copy CRC 0FFFA859 Accurately ripped (confidence 8) [3996B003] Copy OK

Track 16

Filename C:\ruskaval\Mose Allison - Mose Allison Sings (1959) {2006 Prestige Rudy Van Gelder Remaster}\16 - Creek Bank.wav

Pre-gap length 0:00:01.56

Peak level 66.4 % Track quality 99.9 % Test CRC 59164823 Copy CRC 59164823 Accurately ripped (confidence 8) [66539657] Copy OK

All tracks accurately ripped

No errors occurred

End of status report
 
REM GENRE JazzREM DATE 1959REM DISCID D30AE010REM COMMENT "ExactAudioCopy v0.99pb5"PERFORMER "Mose Allison"TITLE "Mose Allison Sings"FILE "01 - The Seventh Son.wav" WAVE TRACK 01 AUDIO TITLE "The Seventh Son" PERFORMER "Mose Allison" INDEX 01 00:00:00 TRACK 02 AUDIO TITLE "Eyesight To The Blind" PERFORMER "Mose Allison" INDEX 00 02:37:17FILE "02 - Eyesight To The Blind.wav" WAVE INDEX 01 00:00:00 TRACK 03 AUDIO TITLE "Do Nothin' 'Till You Hear From Me" PERFORMER "Mose Allison" INDEX 00 01:40:41FILE "03 - Do Nothin' 'Till You Hear From Me.wav" WAVE INDEX 01 00:00:00 TRACK 04 AUDIO TITLE "Lost Mind" PERFORMER "Mose Allison" INDEX 00 03:10:02FILE "04 - Lost Mind.wav" WAVE INDEX 01 00:00:00 TRACK 05 AUDIO TITLE "I've Got A Right To Cry" PERFORMER "Mose Allison" INDEX 00 03:30:46FILE "05 - I've Got A Right To Cry.wav" WAVE INDEX 01 00:00:00 TRACK 06 AUDIO TITLE "Baby Let Me Hold Your Hand" PERFORMER "Mose Allison" INDEX 00 02:47:29FILE "06 - Baby Let Me Hold Your Hand.wav" WAVE INDEX 01 00:00:00 TRACK 07 AUDIO TITLE "Parchman Farm" PERFORMER "Mose Allison" INDEX 00 03:13:72FILE "07 - Parchman Farm.wav" WAVE INDEX 01 00:00:00 TRACK 08 AUDIO TITLE "If You Live" PERFORMER "Mose Allison" INDEX 00 03:17:09FILE "08 - If You Live.wav" WAVE INDEX 01 00:00:00 TRACK 09 AUDIO TITLE "Don't Get Around Much Anymore" PERFORMER "Mose Allison" INDEX 00 02:29:41FILE "09 - Don't Get Around Much Anymore.wav" WAVE INDEX 01 00:00:00 TRACK 10 AUDIO TITLE "One Room Country Shack" PERFORMER "Mose Allison" INDEX 00 02:46:36FILE "10 - One Room Country Shack.wav" WAVE INDEX 01 00:00:00 TRACK 11 AUDIO TITLE "I Hadn't Anyone Till You" PERFORMER "Mose Allison" INDEX 00 02:59:63FILE "11 - I Hadn't Anyone Till You.wav" WAVE INDEX 01 00:00:00 TRACK 12 AUDIO TITLE "Young Man's Blues" PERFORMER "Mose Allison" INDEX 00 02:30:54FILE "12 - Young Man's Blues.wav" WAVE INDEX 01 00:00:00 TRACK 13 AUDIO TITLE "That's All Right" PERFORMER "Mose Allison" INDEX 00 01:23:46FILE "13 - That's All Right.wav" WAVE INDEX 01 00:00:00 TRACK 14 AUDIO TITLE "Blueberry Hill" PERFORMER "Mose Allison" INDEX 00 02:25:58FILE "14 - Blueberry Hill.wav" WAVE INDEX 01 00:00:00 TRACK 15 AUDIO TITLE "Trouble In Mind" PERFORMER "Mose Allison" INDEX 00 02:54:56FILE "15 - Trouble In Mind.wav" WAVE INDEX 01 00:00:00 TRACK 16 AUDIO TITLE "Creek Bank" PERFORMER "Mose Allison" INDEX 00 03:13:60FILE "16 - Creek Bank.wav" WAVE INDEX 01 00:00:00


Трекер:  [ 28-Янв-2012 18:11 ]

  

Скачать .torrent

Размер .torrent файла 14 KB


Размер: 324 MB
Хэш (hash) релиза: c01a74d0b05a24af73c1cb2f4ab5a496c2adf80d

Еще никто не оставлял запись к записи скачать торрент Mose Allison - Mose Allison Sings . Будь первым!

!Обратная связь