Скачать через торрент музыку The Dedication Orchestra - Spirits Rejoice - 1992, FLAC бесплатно без регистрации torrent

Если у вас наблюдаются проблемы со скриншотами, переходом по ссылками, скачиванием торрентов - проблемы в блокировщике рекламы AdBlock. #хорошегоДня!


Статистика раздачи
Размер:  408 MB   |    Зарегистрирован:  5 лет 8 месяцев   |    .torrent скачан:  18 раз   |   
Раздают:  1  
   
Загрузка...
 
Автор Сообщение

Umakiro

avatar Umakiro


The Dedication Orchestra - Spirits Rejoice
Жанр: Experimental Big Band / Free-Jazz / Afro-Cuban
Год издания диска: 1992
Производитель диска: Ogun {OGCD101}
Аудио кодек: FLAC
Тип рипа: tracks+.cue
Битрейт аудио: lossless
Продолжительность: 1:12:39
Источник: AvaxHome / GatoMedio
Треклист:
01. Traumatic experience (4:16)
02. ITHI GQI (11:20)
03. B my dear (7:45)
04. Dancing damon (4:10)
05. Hug pine (8:19)
06. Andromeda (8:17)
07. Manje (5:02)
08. Sonia (7:42)
09. Intro to- You ain't ... (3:55)
10. You ain't gonna know me (6:15)
11. Woza (5:38)

Phil Minton, Maggie Nichols, Julie Tippetts - voice
Guy Barker, Harry Beckett, Claude Deppa, Jim Dvorak, Kenny Wheeler - trumpets
Django Bates - E-flat peckhorn
Dave Amis, Malcolm Griffiths, Radu Malfatti, Paul Rutherford - trombones
Dave Powell - tuba
Neil Metcalfe - flute
Lol Coxhill - soprano, tenor saxes
Ray Warleigh - alto sax, flute
Elton Dean - alto sax
Evan Parker, Alan Skidmore - tenor saxes
Chris Biscoe - baritone sax
Keith Tippet - piano
Paul Rogers - double bass
Louis Moholo - drums

Recorded at the Gateway Studios 2 and 3 January 1992
 
Exact Audio Copy V0.99 prebeta 5 from 4. May 2009

EAC extraction logfile from 3. September 2010, 10:58

Dedication Orchestra / Spirit Rejoice

Used drive : HL-DT-STDVD-RAM GSA-H55N Adapter: 0 ID: 1

Read mode : SecureUtilize accurate stream : YesDefeat audio cache : YesMake use of C2 pointers : No

Read offset correction : 102Overread into Lead-In and Lead-Out : NoFill up missing offset samples with silence : YesDelete leading and trailing silent blocks : NoNull samples used in CRC calculations : NoUsed interface : Native Win32 interface for Win NT & 2000Gap handling : Appended to previous track

Used output format : Internal WAV RoutinesSample format : 44.100 Hz; 16 Bit; Stereo

TOC of the extracted CD

Track | Start | Length | Start sector | End sector --------------------------------------------------------- 1 | 0:00.00 | 4:15.55 | 0 | 19179 2 | 4:15.55 | 11:19.50 | 19180 | 70154 3 | 15:35.30 | 7:45.17 | 70155 | 105046 4 | 23:20.47 | 4:09.73 | 105047 | 123794 5 | 27:30.45 | 8:18.67 | 123795 | 161211 6 | 35:49.37 | 8:17.23 | 161212 | 198509 7 | 44:06.60 | 5:02.05 | 198510 | 221164 8 | 49:08.65 | 7:41.47 | 221165 | 255786 9 | 56:50.37 | 3:55.05 | 255787 | 273416 10 | 60:45.42 | 6:15.28 | 273417 | 301569 11 | 67:00.70 | 5:37.44 | 301570 | 326888

Track 1

Filename D:\_Music myRips\Dedication Orchestra - Spirits Rejoice\wav\01 - Traumatic experience.wav

Pre-gap length 0:00:02.00

Peak level 45.4 % Track quality 100.0 % Test CRC D8CD423F Copy CRC D8CD423F Track not present in AccurateRip database Copy OK

Track 2

Filename D:\_Music myRips\Dedication Orchestra - Spirits Rejoice\wav\02 - ITHI GQI.wav

Peak level 45.7 % Track quality 100.0 % Test CRC 0E2A06A1 Copy CRC 0E2A06A1 Track not present in AccurateRip database Copy OK

Track 3

Filename D:\_Music myRips\Dedication Orchestra - Spirits Rejoice\wav\03 - B my dear.wav

Peak level 45.8 % Track quality 99.9 % Test CRC C72203FD Copy CRC C72203FD Track not present in AccurateRip database Copy OK

Track 4

Filename D:\_Music myRips\Dedication Orchestra - Spirits Rejoice\wav\04 - Dancing damon.wav

Peak level 45.4 % Track quality 100.0 % Test CRC 7EB9711F Copy CRC 7EB9711F Track not present in AccurateRip database Copy OK

Track 5

Filename D:\_Music myRips\Dedication Orchestra - Spirits Rejoice\wav\05 - Hug pine.wav

Peak level 44.9 % Track quality 100.0 % Test CRC 033B7D61 Copy CRC 033B7D61 Track not present in AccurateRip database Copy OK

Track 6

Filename D:\_Music myRips\Dedication Orchestra - Spirits Rejoice\wav\06 - Andromeda.wav

Peak level 45.0 % Track quality 100.0 % Test CRC 7E60E578 Copy CRC 7E60E578 Track not present in AccurateRip database Copy OK

Track 7

Filename D:\_Music myRips\Dedication Orchestra - Spirits Rejoice\wav\07 - Manje.wav

Peak level 45.8 % Track quality 100.0 % Test CRC 74A00717 Copy CRC 74A00717 Track not present in AccurateRip database Copy OK

Track 8

Filename D:\_Music myRips\Dedication Orchestra - Spirits Rejoice\wav\08 - Sonia.wav

Peak level 45.0 % Track quality 100.0 % Test CRC 28EA313A Copy CRC 28EA313A Track not present in AccurateRip database Copy OK

Track 9

Filename D:\_Music myRips\Dedication Orchestra - Spirits Rejoice\wav\09 - Intro to- You ain't ....wav

Peak level 45.7 % Track quality 100.0 % Test CRC A3DD4178 Copy CRC A3DD4178 Track not present in AccurateRip database Copy OK

Track 10

Filename D:\_Music myRips\Dedication Orchestra - Spirits Rejoice\wav\10 - You ain't gonna know me.wav

Peak level 44.9 % Track quality 100.0 % Test CRC 082F6A3C Copy CRC 082F6A3C Track not present in AccurateRip database Copy OK

Track 11

Filename D:\_Music myRips\Dedication Orchestra - Spirits Rejoice\wav\11 - Woza.wav

Peak level 44.9 % Track quality 100.0 % Test CRC 06E39B09 Copy CRC 06E39B09 Track not present in AccurateRip database Copy OK

None of the tracks are present in the AccurateRip database

No errors occurred

End of status report
 
REM GENRE JazzREM DATE 1992REM DISCID 8B11060BREM COMMENT "ExactAudioCopy v0.99pb5"PERFORMER "Dedication Orchestra"TITLE "Spirit Rejoice"FILE "01 - Traumatic experience.wav" WAVE TRACK 01 AUDIO TITLE "Traumatic experience" PERFORMER "Dedication Orchestra" INDEX 01 00:00:00FILE "02 - ITHI GQI.wav" WAVE TRACK 02 AUDIO TITLE "ITHI GQI" PERFORMER "Dedication Orchestra" INDEX 01 00:00:00FILE "03 - B my dear.wav" WAVE TRACK 03 AUDIO TITLE "B my dear" PERFORMER "Dedication Orchestra" INDEX 01 00:00:00FILE "04 - Dancing damon.wav" WAVE TRACK 04 AUDIO TITLE "Dancing damon" PERFORMER "Dedication Orchestra" INDEX 01 00:00:00FILE "05 - Hug pine.wav" WAVE TRACK 05 AUDIO TITLE "Hug pine" PERFORMER "Dedication Orchestra" INDEX 01 00:00:00FILE "06 - Andromeda.wav" WAVE TRACK 06 AUDIO TITLE "Andromeda" PERFORMER "Dedication Orchestra" INDEX 01 00:00:00FILE "07 - Manje.wav" WAVE TRACK 07 AUDIO TITLE "Manje" PERFORMER "Dedication Orchestra" INDEX 01 00:00:00FILE "08 - Sonia.wav" WAVE TRACK 08 AUDIO TITLE "Sonia" PERFORMER "Dedication Orchestra" INDEX 01 00:00:00FILE "09 - Intro to- You ain't ....wav" WAVE TRACK 09 AUDIO TITLE "Intro to: You ain't ..." PERFORMER "Dedication Orchestra" INDEX 01 00:00:00FILE "10 - You ain't gonna know me.wav" WAVE TRACK 10 AUDIO TITLE "You ain't gonna know me" PERFORMER "Dedication Orchestra" INDEX 01 00:00:00FILE "11 - Woza.wav" WAVE TRACK 11 AUDIO TITLE "Woza" PERFORMER "Dedication Orchestra" INDEX 01 00:00:00


Трекер:  [ 28-Янв-2012 18:10 ]

  

Скачать .torrent

Размер .torrent файла 17 KB


Размер: 408 MB
Хэш (hash) релиза: 40dd973229a3398ae96c25fb3e4518837addac11

Еще никто не оставлял запись к записи скачать торрент The Dedication Orchestra - Spirits Rejoice - 1992, FLAC . Будь первым!

!Обратная связь