Скачать через торрент музыку Cedar Walton Trio - Midnight Waltz - 2005, FLAC бесплатно без регистрации torrent

Если у вас наблюдаются проблемы со скриншотами, переходом по ссылками, скачиванием торрентов - проблемы в блокировщике рекламы AdBlock. #хорошегоДня!


Статистика раздачи
Размер:  446 MB   |    Зарегистрирован:  5 лет 8 месяцев   |    .torrent скачан:  32 раза   |   
Раздают:  1  
   
Загрузка...
 
Автор Сообщение

Umakiro

avatar Umakiro


Cedar Walton Trio - Midnight Waltz
Жанр: Hard Bop / Post-Bop / Piano
Год издания диска: 2005
Издатель (лейбл): Venus Records
Номер по каталогу: 660317
Аудио кодек: FLAC
Тип рипа: image+.cue
Битрейт аудио: lossless
Продолжительность: 1:08:09
Источник (релизер): AvaxHome (johan_perez)
Наличие сканов в содержимом раздачи: да
Треклист:
01. Bremond's Blues (5:18)
02. Turquoise (6:15)
03. Cedar's Blues (4:56)
04. Midnight Waltz (9:44)
05. Holy Land (6:55)
06. Theme For Jobim (4:37)
07. Dear Ruth (10:22)
08. The Vision (6:01)
09. Bolivia (7:57)
10. Ugetsu (6:04)

Cedar Walton - piano
David Williams - bass
Jimmy Cobb - drums

Recorded at Avatar Studio in New York on March 18, 2005
 
Exact Audio Copy V0.99 prebeta 5 from 4. May 2009

EAC extraction logfile from 18. September 2010, 13:28

Cedar Walton Trio / Midnight Waltz

Used drive : Optiarc DVD RW AD-7200S Adapter: 3 ID: 0

Read mode : SecureUtilize accurate stream : YesDefeat audio cache : YesMake use of C2 pointers : No

Read offset correction : 48Overread into Lead-In and Lead-Out : NoFill up missing offset samples with silence : YesDelete leading and trailing silent blocks : NoNull samples used in CRC calculations : YesUsed interface : Native Win32 interface for Win NT & 2000

Used output format : User Defined EncoderSelected bitrate : 768 kBit/sQuality : HighAdd ID3 tag : NoCommand line compressor : C:\Program Files\Exact Audio Copy\FLAC\FLAC.EXEAdditional command line options : -6 -V -T "ARTIST=%a" -T "TITLE=%t" -T "ALBUM=%g" -T "DATE=%y" -T "TRACKNUMBER=%n" -T "GENRE=%m" -T "COMMENT=%e" %s -o %d

TOC of the extracted CD

Track | Start | Length | Start sector | End sector --------------------------------------------------------- 1 | 0:00.00 | 5:18.00 | 0 | 23849 2 | 5:18.00 | 6:15.01 | 23850 | 51975 3 | 11:33.01 | 4:56.01 | 51976 | 74176 4 | 16:29.02 | 9:44.02 | 74177 | 117978 5 | 26:13.04 | 6:55.01 | 117979 | 149104 6 | 33:08.05 | 4:37.00 | 149105 | 169879 7 | 37:45.05 | 10:22.02 | 169880 | 216531 8 | 48:07.07 | 6:01.01 | 216532 | 243607 9 | 54:08.08 | 7:57.01 | 243608 | 279383 10 | 62:05.09 | 6:04.17 | 279384 | 306700

Range status and errors

Selected range

Filename C:\My Music\rfccbh\Cedar Walton Trio - Midnight Waltz.wav

Peak level 100.0 % Range quality 99.9 % Test CRC 6B944A38 Copy CRC 6B944A38 Copy OK

No errors occurred

AccurateRip summary

Track 1 not present in databaseTrack 2 not present in databaseTrack 3 not present in databaseTrack 4 not present in databaseTrack 5 not present in databaseTrack 6 not present in databaseTrack 7 not present in databaseTrack 8 not present in databaseTrack 9 not present in databaseTrack 10 not present in database

None of the tracks are present in the AccurateRip database

End of status report


Трекер:  [ 28-Янв-2012 18:10 ]

  

Скачать .torrent

Размер .torrent файла 18 KB


Размер: 446 MB
Хэш (hash) релиза: 5bddd498923e75537ad54c070863bca40a34b67c

Еще никто не оставлял запись к записи скачать торрент Cedar Walton Trio - Midnight Waltz - 2005, FLAC . Будь первым!

!Обратная связь