Скачать через торрент музыку Enrico Rava & Paolo Fresu - Shades of Chet - 1999, FLAC бесплатно без регистрации torrent

Если у вас наблюдаются проблемы со скриншотами, переходом по ссылками, скачиванием торрентов - проблемы в блокировщике рекламы AdBlock. #хорошегоДня!


Статистика раздачи
Размер:  341 MB   |    Зарегистрирован:  5 лет 8 месяцев   |    .torrent скачан:  32 раза   |   
Раздают:  1  
   
Загрузка...
 
Автор Сообщение

Umakiro

avatar Umakiro


Enrico Rava & Paolo Fresu - Shades of Chet
Жанр: Post-Bop / Trumpets
Год издания диска: 1999
Издатель (лейбл): LABEL BLEU/MCA
Номер по каталогу: LBLC 6629 / HM 83
Аудио кодек: FLAC (*.flac)
Тип рипа: image+.cue
Битрейт аудио: lossless
Продолжительность: 0:59:14
Источник (релизер): HQShare (sardanapale)
Наличие сканов в содержимом раздачи: да
Треклист:
01. Doodlin' (5:31)
02. My funny Valentine (9:58)
03. Anthropology (5:22)
04. Retrato em branco e preto (7:30)
05. Doxy (7:07)
06. You can't go home again (7:37)
07. Line for Lyons (7:18)
08. Strike up the band (3:33)
09. Donna (5:18)

Enrico Rava - trumpet, fluegelhorn
Paolo Fresu - trumpet, fluegelhorn
Stefano Bollani - piano
Enzo Pietropaoli - double bass
Roberto Gatto - drums

Recorded on May 17 and 18 1999 at Studio Diapason in Roma
 
Exact Audio Copy V0.99 prebeta 5 from 4. May 2009

EAC extraction logfile from 24. September 2010, 8:08

Enrico Rava & Paolo Fresu / Shades of Chet

Used drive : Optiarc DVD RW AD-7240S Adapter: 3 ID: 1

Read mode : SecureUtilize accurate stream : YesDefeat audio cache : YesMake use of C2 pointers : No

Read offset correction : 48Overread into Lead-In and Lead-Out : NoFill up missing offset samples with silence : YesDelete leading and trailing silent blocks : NoNull samples used in CRC calculations : YesUsed interface : Native Win32 interface for Win NT & 2000

Used output format : User Defined EncoderSelected bitrate : 768 kBit/sQuality : HighAdd ID3 tag : NoCommand line compressor : D:\Exact Audio Copy\FLAC\FLAC.EXEAdditional command line options : -6 -V -T "ARTIST=%a" -T "TITLE=%t" -T "ALBUM=%g" -T "DATE=%y" -T "TRACKNUMBER=%n" -T "GENRE=%m" -T "COMMENT=%e" %s -o %d

TOC of the extracted CD

Track | Start | Length | Start sector | End sector --------------------------------------------------------- 1 | 0:00.00 | 5:31.34 | 0 | 24858 2 | 5:31.34 | 9:58.01 | 24859 | 69709 3 | 15:29.35 | 5:21.39 | 69710 | 93823 4 | 20:50.74 | 7:30.19 | 93824 | 127592 5 | 28:21.18 | 7:06.59 | 127593 | 159601 6 | 35:28.02 | 7:37.27 | 159602 | 193903 7 | 43:05.29 | 7:17.72 | 193904 | 226750 8 | 50:23.26 | 3:32.49 | 226751 | 242699 9 | 53:56.00 | 5:17.55 | 242700 | 266529

Range status and errors

Selected range

Filename F:\ZIK\Enrico Rava & Paolo Fresu\Shades of Chet\Enrico Rava & Paolo Fresu - Shades of Chet.wav

Peak level 100.0 % Range quality 99.9 % Copy CRC 1D956F3C Copy OK

No errors occurred

AccurateRip summary

Track 1 accurately ripped (confidence 5) [12BE1150]Track 2 accurately ripped (confidence 5) [C0D79D79]Track 3 accurately ripped (confidence 5) [337C1FC0]Track 4 accurately ripped (confidence 5) [5B622AF6]Track 5 accurately ripped (confidence 5) [05495CC3]Track 6 accurately ripped (confidence 5) [2F8D0535]Track 7 accurately ripped (confidence 5) [71A0F057]Track 8 accurately ripped (confidence 5) [5023AA01]Track 9 accurately ripped (confidence 5) [4BE66F24]

All tracks accurately ripped

End of status report


Трекер:  [ 28-Янв-2012 18:09 ]

  

Скачать .torrent

Размер .torrent файла 14 KB


Размер: 341 MB
Хэш (hash) релиза: e8f3a325561bcacb12e6db55b0ba1012d0c09e00

Еще никто не оставлял запись к записи скачать торрент Enrico Rava & Paolo Fresu - Shades of Chet - 1999, FLAC . Будь первым!

!Обратная связь